<?xml version="1.0" standalone="no"?>
<!DOCTYPE svg PUBLIC "-//W3C//DTD SVG 1.1//EN" "http://www.w3.org/Graphics/SVG/1.1/DTD/svg11.dtd" >
<svg xmlns="http://www.w3.org/2000/svg">
<metadata></metadata>
<defs>
<font id="quicksandlight_oblique" horiz-adv-x="1255" >
<font-face units-per-em="2048" ascent="1638" descent="-410" />
<missing-glyph horiz-adv-x="614" />
<glyph horiz-adv-x="2048" />
<glyph horiz-adv-x="2048" />
<glyph unicode="&#xd;" horiz-adv-x="614" />
<glyph unicode=" "  horiz-adv-x="614" />
<glyph unicode="&#x09;" horiz-adv-x="614" />
<glyph unicode="&#xa0;" horiz-adv-x="614" />
<glyph unicode="!" horiz-adv-x="516" d="M193 35l10 49q3 26 28 22q27 -8 23 -30l-10 -49q-4 -23 -25 -23q-4 0 -4 2q-27 4 -22 29zM250 352l186 1065q6 25 31 21q10 -2 17.5 -10.5t2.5 -18.5l-186 -1067q-4 -20 -27 -20h-4q-10 2 -17 11t-3 19z" />
<glyph unicode="&#x22;" horiz-adv-x="839" d="M139 1298v13v6v2q0 12 2 28.5t10.5 33t23.5 30.5t42 21h6q13 -1 13 -13q6 -10 -11 -18q-23 -6 -33 -17.5t-16 -25.5q4 2 12 2q23 0 38.5 -14.5t15.5 -34.5q0 -23 -15.5 -38.5t-38.5 -15.5q-37 0 -47 37q-2 0 -2 4zM291 1298v5v8v8q0 12 2 28.5t10 33t23.5 30.5t42.5 21h6 q12 -1 12 -13q6 -10 -10 -18q-23 -6 -33 -17.5t-16 -25.5q4 2 12 2q23 0 38 -14.5t15 -34.5q0 -23 -15.5 -38.5t-37.5 -15.5q-37 0 -47 37q-2 0 -2 4z" />
<glyph unicode="#" horiz-adv-x="1705" d="M172 436q4 20 19.5 24.5t35.5 4.5h244l176 524h-246q-20 0 -34.5 3t-10.5 24q4 20 19.5 24t36.5 4h262l119 359l13 32.5t25 12.5q27 0 25 -18.5t-10 -40.5l-115 -345h465l119 359l13 32.5t26 12.5q27 0 24.5 -18.5t-10.5 -40.5l-115 -345h226q20 0 33.5 -3t9.5 -23 t-18.5 -24.5t-35.5 -4.5h-241l-176 -524h243q20 0 33.5 -3t9.5 -24q-4 -20 -18 -24t-35 -4h-260l-125 -367q-6 -20 -11 -32.5t-26 -12.5q-27 0 -24.5 18.5t10.5 40.5l119 353h-465l-125 -367q-6 -20 -11.5 -32.5t-25.5 -12.5q-27 0 -24.5 18t10.5 41l118 353h-227 q-20 0 -34.5 3t-10.5 23zM528 465h465l176 524h-464z" />
<glyph unicode="$" horiz-adv-x="1366" d="M104 201q-16 16 2 35q18 16 33 2q70 -66 180.5 -126.5t249.5 -70.5l121 688q-90 18 -164.5 47t-128.5 70q-59 43 -86.5 102.5t-13.5 136.5q14 74 61.5 137.5t118 111.5t158.5 78t182 34l10 55q4 18 7.5 31.5t21.5 13.5t19.5 -13t-3.5 -32l-10 -55q68 -2 124 -18.5 t104.5 -40t90.5 -53t79 -56.5q16 -12 0 -33q-14 -18 -33 -6q-37 27 -77 54.5t-85 50t-97.5 38t-113.5 17.5l-111 -631q104 -23 189.5 -52.5t146.5 -74.5q61 -47 91 -110.5t16 -147.5q-16 -82 -69.5 -152.5t-131.5 -123t-176 -82t-203 -31.5l-8 -49q-4 -18 -9 -31.5 t-24 -13.5q-18 0 -17 13t5 32l8 49q-76 4 -143.5 24.5t-124.5 49t-105.5 63.5t-83.5 70zM344 1085q-10 -63 11.5 -111t74.5 -89q47 -37 115.5 -63.5t154.5 -45.5l109 623q-84 -4 -161 -28.5t-140 -65.5q-66 -43 -110 -99.5t-54 -120.5zM614 41q98 2 185 28.5t159 73.5 q74 47 121 108.5t60 131.5q12 70 -12.5 123t-79.5 96q-53 41 -133 69.5t-179 49.5z" />
<glyph unicode="%" horiz-adv-x="1705" d="M181.5 944.5q-11.5 65.5 0.5 136.5l2 4q12 72 46 138.5t85.5 117t115 81t134.5 30.5q70 0 123 -29.5t85 -81t43 -117t-1 -134.5v-5q-12 -72 -47 -138t-86 -117.5t-114.5 -81t-135.5 -29.5t-124 29.5t-83.5 80t-43 116zM199 20q0 7 6 15l4 4q2 2 3 4t5 6q6 6 12 14 l1235 1358q10 10 19.5 12.5t13.5 2.5q8 0 8 -9v-6q2 -6 -12 -21.5t-23 -25.5l-1234 -1356q-4 -2 -7.5 -6t-11.5 -4q-12 0 -15 4t-3 8zM230.5 948q11.5 -63 40 -108t72.5 -71t97 -26q55 0 108.5 26t97.5 72t75 107.5t43 132.5l2 4q12 74 1 136.5t-40 108.5t-73 71.5t-97 25.5 q-55 0 -108.5 -26.5t-97.5 -72.5t-74.5 -107.5t-43.5 -130.5v-5q-14 -74 -2.5 -137zM883.5 210.5q-11.5 65.5 1.5 137.5v4q12 72 47 138.5t86 116.5t114.5 81t135.5 31q70 0 123 -30t84.5 -81t43 -116.5t-0.5 -135.5l-2 -4q-12 -72 -46 -138.5t-85.5 -117.5t-114.5 -80.5 t-135 -29.5t-124.5 29.5t-84 79.5t-43 115.5zM931 216q11 -62 40.5 -107.5t74 -71t97.5 -25.5q55 0 108.5 25.5t97.5 72t75.5 106.5t43.5 132v4q12 74 1 135.5t-39.5 107.5t-73.5 71.5t-96 25.5q-55 0 -108.5 -26.5t-98.5 -72.5t-76 -107.5t-43 -129.5l-2 -4 q-12 -74 -1 -136z" />
<glyph unicode="&#x26;" horiz-adv-x="1425" d="M100 389q0 39 6 80q23 129 104 232.5t196 162.5q-72 78 -72 189q0 14 1 28.5t3 28.5q12 68 49 128t89 104t115.5 70t133.5 26q123 0 203 -80q80 -76 80 -199q0 -27 -7 -57q-2 -10 -10 -16.5t-18 -4.5t-17.5 10.5t-5.5 18.5q4 14 4 26.5v22.5q0 98 -62.5 162.5 t-166.5 64.5q-59 0 -114.5 -22.5t-101.5 -61t-78 -91t-42 -109.5q-2 -12 -3 -24.5t-1 -24.5q0 -55 21.5 -100.5t58.5 -75.5q23 -14 4 -37h-2q-2 -4 -4 -5t-4 -4q-115 -49 -197 -148t-104 -222q-6 -37 -6 -72q0 -72 24.5 -132t69.5 -105.5t106.5 -70t136.5 -24.5q86 0 167 32 t146.5 88t112 132t60.5 160q6 37 6 72v19t-2 20h-10q-16 2 -33.5 2h-34.5q-129 0 -197.5 -31t-101.5 -70q-35 -41 -43 -81t-8 -60v-16q4 -25 -23 -29h-4q-20 0 -24 22q-2 2 -2 7v16q0 27 11 76t52 98q43 49 124 85t216 36q16 0 34.5 -1t37.5 -3h12q31 0 60.5 9t54 28.5 t40 53.5t15.5 83v16q0 25 25 29q10 0 18 -7t8 -18v-20q2 -59 -18.5 -103.5t-52.5 -72.5q-23 -18 -49.5 -29.5t-55.5 -15.5q2 -10 3 -21.5t1 -21.5q0 -20 -2 -40t-6 -40q-16 -96 -66.5 -179t-123 -144.5t-162.5 -97.5t-185 -36q-86 0 -156.5 29.5t-123.5 81.5 q-51 53 -80 122.5t-29 151.5z" />
<glyph unicode="'" horiz-adv-x="471" d="M97.5 913.5q-7.5 8.5 0.5 30.5l148 440q18 53 67 54h39q33 0 27 -35l-9 -22.5t-12 -26.5l-196 -412q-20 -37 -43 -37q-14 0 -21.5 8.5z" />
<glyph unicode="(" horiz-adv-x="880" d="M145 442q0 66 6.5 136.5t20.5 148.5q27 145 70 272t104 226q61 98 145.5 155.5t188.5 57.5q25 0 25 -25q0 -27 -25 -27q-88 0 -159.5 -49t-131.5 -141q-57 -92 -99 -215t-67 -264q-12 -74 -19 -143.5t-7 -131.5q0 -90 14 -161.5t43 -122.5q31 -49 74 -75t108 -26 q27 0 27 -26q0 -27 -27 -27h-2q-78 0 -133 35t-90 94t-50.5 137t-15.5 172z" />
<glyph unicode=")" horiz-adv-x="880" d="M123 31q0 27 27 26q88 0 158.5 49.5t129.5 141.5t100.5 215t65.5 264q14 74 21.5 142.5t7.5 131.5q0 182 -60 283q-29 49 -71.5 75.5t-108.5 26.5q-27 0 -26 27q0 25 26 25q78 2 134 -33t91 -94t50.5 -137t15.5 -173q0 -129 -29 -284q-25 -145 -67.5 -272.5 t-104.5 -225.5q-63 -98 -146 -156.5t-187 -58.5q-27 0 -27 27z" />
<glyph unicode="*" horiz-adv-x="880" d="M123 1116q0 29 33 29h229l-137 162q-20 20 8 41q20 18 39 0l135 -162l37 227q4 29 35 29q29 0 24 -29l-37 -227l191 162q20 16 41 0q8 -23 -8 -41l-191 -162h230q27 0 26 -29q-4 -12 -14 -21.5t-23 -9.5h-227l137 -159q6 -10 5 -21.5t-9 -17.5q-16 -10 -26 -10 q-15 0 -15 10l-139 160l-37 -230q-2 -12 -11 -21.5t-22 -9.5q-14 0 -21 9.5t-5 21.5l37 232l-187 -162q-16 -10 -26 -10q-2 0 -7.5 3t-5.5 7q-10 6 -8 17t12 22l185 159h-226q-14 0 -20 9.5t-2 21.5z" />
<glyph unicode="+" horiz-adv-x="1269" d="M135 707q6 35 43 34h432l84 435q6 35 45 34q12 0 21.5 -9t5.5 -25l-84 -435h434q12 0 22.5 -9t6.5 -25t-17.5 -26.5t-25.5 -10.5h-434l-84 -432q-4 -16 -16.5 -26.5t-24.5 -10.5q-16 0 -25.5 10.5t-5.5 26.5l84 432h-432q-16 0 -24.5 10t-4.5 27z" />
<glyph unicode="," horiz-adv-x="471" d="M82 -184q4 18 20 26q59 31 89 68t34 90q-23 6 -36 23.5t-7 48.5l6 43q4 29 28 48t52 19q29 0 44.5 -19.5t11.5 -47.5l-9 -52q-14 -86 -35.5 -135t-54.5 -78t-68.5 -47t-50.5 -18q-10 0 -19 7.5t-5 23.5z" />
<glyph unicode="-" horiz-adv-x="835" d="M135 715q0 23 21 22h467q18 0 18 -22q0 -18 -18 -19h-467q-20 0 -21 19z" />
<glyph unicode="." horiz-adv-x="471" d="M168 53q4 29 26.5 49.5t51.5 20.5t47 -20.5t14 -49.5t-27.5 -49t-52.5 -20t-46 20t-13 49z" />
<glyph unicode="/" horiz-adv-x="1024" d="M-6 37l579 1376q4 10 13.5 14.5t19.5 -0.5q10 -4 15.5 -13t1.5 -19l-584 -1379q-4 -16 -23 -16q-8 0 -10 2q-23 10 -12 35z" />
<glyph unicode="0" horiz-adv-x="1454" d="M133 541q0 43 3 88t14 92q27 145 86 274t141 226.5t180.5 154t202.5 58.5q88 0 159.5 -43t120.5 -115q49 -74 76 -171t27 -212q0 -43 -4 -89t-13 -93q-27 -145 -86 -274.5t-141 -226.5t-180 -153.5t-203 -56.5h-2q-86 0 -157.5 42t-120.5 116q-49 72 -76 169t-27 214z M184 541q0 -111 24.5 -200t70.5 -155q45 -66 104 -100.5t133 -34.5q88 0 177 51.5t166 142.5t134 213t82 263q14 84 15 172q0 109 -25 198t-68 154q-45 66 -104 100.5t-133 34.5h-4q-88 0 -176 -52t-165 -143t-133.5 -213t-80.5 -261q-16 -94 -17 -170z" />
<glyph unicode="1" horiz-adv-x="686" d="M68 1225q-10 23 10 37l319 170q2 2 4 2t5 2h6h2l2 -2q4 0 6 -2q2 0 4 -2l2 -3l4 -4v-2l2 -2q0 -4 2 -6v-6v-2l-243 -1382q-4 -20 -27 -21h-4q-10 2 -17.5 11.5t-3.5 19.5l234 1329l-273 -148q-4 -2 -12 -2q-16 0 -22 13z" />
<glyph unicode="2" horiz-adv-x="1208" d="M93 30.5q1 10.5 9 16.5l805 629q96 74 145.5 174t49.5 201q0 115 -62 200q-47 66 -118.5 98.5t-157.5 32.5q-72 0 -148.5 -26.5t-144.5 -79.5l-86 -66q-18 -14 -37 4q-14 23 6 37l84 66q76 59 160 89t166 30q94 0 178 -38t139 -116q74 -102 74 -231q0 -113 -56.5 -223.5 t-160.5 -192.5l-743 -582h759q27 0 27 -26q0 -25 -27 -25h-827h-4h-4q-12 0 -21 10q-6 8 -5 18.5z" />
<glyph unicode="3" horiz-adv-x="1249" d="M154 139q-14 18 6 37q20 18 39 0q51 -61 122.5 -92t153.5 -31t166 31t158 94q72 61 117 139t59 162q16 80 -1.5 158t-68.5 141q-51 61 -122.5 92t-153.5 31q-16 0 -23 12l-2 2q-6 8 -5 19.5t11 19.5l490 426h-633q-10 0 -17.5 8.5t-3.5 18.5q4 27 31 27h694 q10 0 17.5 -8.5t3.5 -18.5q0 -4 -4 -12t-8 -11l-498 -432q78 -8 147.5 -41.5t118.5 -95.5q59 -70 77.5 -157t2.5 -179t-65.5 -180t-133.5 -160q-84 -70 -177 -104.5t-185 -34.5t-174 34t-139 105z" />
<glyph unicode="4" horiz-adv-x="1359" d="M106 307q-18 18 0 37l1057 1077q2 0 2 2q2 0 2 1t2 1t2 1t3 1q4 0 4 3h6h2q2 -2 2 -3q4 0 6 -2q2 0 2 -1t2 -1l2 -2l2 -2q2 -2 2 -4t1 -2t1 -2v-4q2 -4 0 -6l2 -2l-186 -1047h123q27 0 26 -26q0 -25 -26 -25h-131l-49 -285q-6 -20 -27 -20h-4q-10 2 -17.5 11t-3.5 20 l48 274h-832h-2h-2q-10 0 -19 6zM186 352h785l170 973z" />
<glyph unicode="5" horiz-adv-x="1239" d="M133 143q-18 18 4 37q18 18 37 -4q49 -59 121 -90t154 -31t165.5 31t159.5 94q92 78 139.5 179.5t47.5 199.5q0 61 -18.5 117.5t-59.5 103.5q-49 61 -120 92t-153 31q-84 0 -168 -30.5t-157 -96.5q-23 -14 -39 4l-6 13v14l180 606q4 12 16 17q6 6 13 6h694q27 0 26 -27 q0 -27 -26 -27h-676l-154 -518q141 92 297 92q92 0 174 -34.5t142 -106.5q45 -55 66.5 -120.5t21.5 -135.5q0 -113 -52.5 -223.5t-152.5 -196.5q-82 -70 -175 -103.5t-185 -33.5h-3q-92 0 -172.5 35t-140.5 106z" />
<glyph unicode="6" horiz-adv-x="1314" d="M131 391v33v4q12 150 65.5 322t149.5 321q49 76 110.5 140.5t135.5 113.5t160 79t184 34q27 0 27 -27q2 -10 -6.5 -17.5t-18.5 -9.5q-182 -6 -317.5 -102t-229.5 -240q-53 -80 -92 -168t-66 -180q78 106 196 172t251 66q86 0 157.5 -29t125.5 -82q53 -53 82.5 -123.5 t29.5 -152.5q0 -20 -2 -40t-6 -42l-25 4l25 -4q-16 -96 -67.5 -180t-124 -145.5t-163.5 -97.5t-188 -36q-86 0 -157.5 28.5t-124.5 82.5q-53 53 -82 123.5t-29 152.5zM182 391q0 -72 24.5 -133t70 -106.5t109 -71t138.5 -25.5q86 0 168 33t149.5 90.5t114 132t60.5 160.5 q6 39 6 74q0 72 -24.5 133t-69.5 105t-108.5 71t-139.5 27h-2q-86 0 -167 -33t-148.5 -90.5t-113.5 -133t-61 -161.5q-6 -37 -6 -72z" />
<glyph unicode="7" horiz-adv-x="1202" d="M139 37l801 1341h-754q-27 0 -26 27q0 27 26 27h801l2 -2h4q4 0 4 -3h2l2 -2q4 -4 5 -4l4 -4q0 -2 2 -4v-6v-2v-2v-4q-2 -2 -2 -6v-2l-828 -1381q-6 -12 -20 -12q-10 0 -15 2q-23 14 -8 37z" />
<glyph unicode="8" horiz-adv-x="1290" d="M113 377q0 39 6 80q14 80 52 150.5t93 128t124 98t144 59.5q-33 16 -55 39q-68 68 -67 170q0 12 1 24.5t3 24.5q10 57 40.5 108.5t75.5 89t99.5 60.5t113.5 23q53 0 97.5 -18.5t77.5 -51.5t51 -76t16 -94v-24.5t-4 -24.5q-16 -86 -72.5 -152.5t-134.5 -101.5 q47 -12 85 -36t71 -54q53 -51 80.5 -121t27.5 -150q0 -41 -6 -79q-16 -94 -66.5 -176.5t-122 -143.5t-160.5 -96t-183 -35q-86 0 -156 28.5t-123 79.5t-80.5 121t-27.5 150zM145 453l25 -4q-6 -37 -6 -72q0 -72 24.5 -131.5t68.5 -103.5t106.5 -68.5t136.5 -24.5 q84 0 164.5 32t146.5 87t111 130t59 159q6 37 6 71q0 70 -24.5 130.5t-68.5 104.5t-106.5 68.5t-136.5 24.5q-84 0 -164.5 -31.5t-146.5 -87t-111 -130.5t-59 -158zM438 1147l27 -4q-4 -10 -4 -20.5v-20.5q0 -80 53 -133.5t139 -53.5q49 0 95.5 18.5t84 50.5t64.5 75t35 92 q2 10 3 20.5t1 20.5q-2 82 -54.5 134t-138.5 54q-49 0 -95 -19.5t-85 -51t-64.5 -74.5t-33.5 -92z" />
<glyph unicode="9" horiz-adv-x="1314" d="M135 897q0 45 8 80q16 96 67.5 180t124.5 145.5t164 98.5t187 37q86 0 158 -30t125 -83t81.5 -122.5t28.5 -153.5v-33v-4q-12 -150 -65 -322t-152 -321q-49 -74 -109.5 -139.5t-134 -113.5t-159.5 -78t-185 -34h-2q-23 0 -26 25q0 27 26 26q182 8 317.5 103.5 t229.5 238.5q53 80 92 168t66 180q-78 -106 -195.5 -170.5t-251.5 -66.5q-86 0 -158.5 29.5t-125.5 83.5q-53 53 -82 122.5t-29 153.5zM168 973l27 -4q-6 -37 -7 -72q0 -72 25 -133.5t70 -106.5t108 -70.5t139 -25.5q86 0 168 32t148.5 89t113 133t62.5 162q6 37 6 72 q0 72 -24.5 133t-69.5 106t-108.5 70.5t-139.5 25.5q-86 0 -168 -31.5t-149.5 -89t-113.5 -133t-60 -161.5z" />
<glyph unicode=":" horiz-adv-x="491" d="M186 72q4 29 29.5 50t56.5 21q29 0 47.5 -21.5t12.5 -49.5q-4 -31 -30 -52.5t-56 -21.5q-29 0 -47.5 21.5t-12.5 52.5zM377 1153q6 31 30.5 52.5t55.5 21.5t48 -21.5t11 -52.5q-4 -29 -29.5 -50.5t-56.5 -21.5q-29 0 -46 21.5t-13 50.5z" />
<glyph unicode=";" horiz-adv-x="491" d="M121 -92q0 10 7 19.5t17 11.5q37 10 59.5 29.5t33.5 43.5q-12 -6 -23 -6q-35 0 -54.5 24.5t-15.5 59.5q6 35 36 59.5t65 24.5q33 0 51 -18.5t18 -44.5l4 -2q0 -2 -2 -11.5t-4 -25.5q-4 -18 -12 -45t-26.5 -54.5t-49 -50t-75.5 -35.5h-9q-20 0 -20 21zM367 1346 q8 35 36.5 59.5t65.5 24.5q35 0 54.5 -25t13.5 -59q-4 -35 -34 -60.5t-67 -25.5q-35 0 -54.5 25.5t-14.5 60.5z" />
<glyph unicode="&#x3c;" horiz-adv-x="1269" d="M123 717v4q0 2 1 3t1 3t2 4q0 2 1 2t1 2q2 2 2 3t2 3l803 686q10 8 22.5 7.5t20.5 -11.5q8 -10 7 -22t-11 -21l-778 -665l540 -664q18 -25 -4 -43q-8 -8 -20 -8q-14 0 -23 12l-561 686l-4 9v2q-2 2 -2 8z" />
<glyph unicode="=" horiz-adv-x="1269" d="M162 393q0 25 28 25h713q10 0 19.5 -7.5t9.5 -17.5q0 -12 -9.5 -20t-19.5 -8h-713q-29 0 -28 28zM238 821q0 12 9 19.5t19 7.5h711q31 0 31 -27q0 -25 -31 -24h-711q-10 0 -19 7t-9 17z" />
<glyph unicode="&#x3e;" horiz-adv-x="1269" d="M185.5 37.5q0.5 11.5 11.5 21.5l780 666l-543 664q-8 10 -6 22t12 21q20 18 43 -5l559 -686l5 -8l2 -2v-6v-6v-4q-2 -2 -2 -6q0 -2 -1.5 -2t-1.5 -2l-6 -7l-800 -686q-12 -8 -21 -8q-16 0 -22 12q-10 10 -9.5 21.5z" />
<glyph unicode="?" horiz-adv-x="1093" d="M84 1221q72 96 179.5 154.5t228.5 58.5q80 0 147.5 -28t116.5 -77t75.5 -114.5t26.5 -143.5q0 -37 -6 -76q-16 -86 -60 -161.5t-110 -133t-146.5 -92.5t-166.5 -39l-45 -254q-4 -20 -25 -20h-4q-10 2 -16.5 10t-2.5 19l46 264q2 2 2 4q0 25 24 24q80 0 156 31t137 84 t104 124t58 151q6 33 6 65q0 68 -23.5 125t-64.5 98t-100.5 65.5t-128.5 24.5q-106 0 -205 -53t-164 -141q-6 -8 -16.5 -9t-18.5 5q-18 14 -4 35zM223 29l8 47q2 10 10.5 16t18.5 2q25 -4 21 -26l-9 -48q-4 -20 -24 -20h-4q-25 4 -21 29z" />
<glyph unicode="@" horiz-adv-x="2007" d="M178 717q27 147 105.5 278t193.5 228.5t256.5 154t288.5 56.5t268 -56.5t201 -154t113.5 -228.5t7.5 -278q-31 -176 -137 -328l-15 -19q-16 -18 -41.5 -42.5t-62.5 -48t-82 -33.5q-18 -6 -37 -6q-33 0 -55.5 13t-32.5 34q-20 39 -14 84v2l26 151q-59 -80 -146 -129 t-186 -49q-74 0 -132 28.5t-96 80t-53.5 118t-2.5 144.5q14 76 53 143.5t95.5 118.5t125 79.5t142.5 28.5t133 -28.5t97 -79.5t53.5 -118.5t2.5 -143.5q-4 -12 -4 -21v-4l-57 -315h2q-8 -33 8 -58q8 -12 18.5 -19t30.5 -7q16 0 27 2q49 10 90 46t59 58q4 4 5 6.5t4 4.5l4 4 q47 68 79.5 143.5t47.5 159.5q25 137 -7 258t-106 211t-185.5 143t-248.5 53q-139 0 -269.5 -53t-236 -143t-179 -211t-98.5 -258t6 -258t106 -211t186.5 -143.5t248.5 -53.5q43 0 85 5t83 16q25 6 29 -19q0 -25 -25 -30q-94 -23 -180 -23q-150 0 -270.5 56.5t-200.5 153.5 t-113.5 228t-7.5 279zM596 717q-12 -68 2 -126.5t47 -101.5t83.5 -67.5t111.5 -24.5t119.5 24.5t106.5 67.5t82 101.5t46 126.5t-1 126t-46 101t-83 67.5t-112 24.5q-61 0 -119.5 -24.5t-107.5 -67.5t-83 -101.5t-46 -125.5z" />
<glyph unicode="A" horiz-adv-x="1323" d="M121 37l762 1382q8 13 21 13h5q3 1 5 1q16 0 22 -22l274 -1380q1 -4 1 -7q0 -20 -21 -24h-4q-23 0 -27 20l-72 365h-716l-205 -373q-10 -12 -23 -12q-10 0 -14 2q-14 8 -14 20q0 7 6 15zM399 436h678l-180 901z" />
<glyph unicode="B" horiz-adv-x="1216" d="M215 25l244 1382q4 25 28 20l2 3h324q131 0 211 -84q39 -39 60.5 -91.5t21.5 -113.5q0 -14 -1 -28.5t-3 -31.5q-18 -98 -81 -176t-149 -121q96 -20 166 -88q45 -45 70 -105.5t25 -131.5q0 -33 -7 -70q-14 -82 -57 -153.5t-106.5 -125t-140.5 -84t-158 -30.5h-418h-2h-4 h-4q-10 2 -16 10q-5 6 -5 14v5zM270 47h394q72 0 140 27.5t124.5 75t95.5 112t51 135.5q6 31 6 62q-2 123 -79.5 201.5t-206.5 78.5h-402zM403 795h299q61 0 119 22.5t106 63.5t80.5 94t43.5 115q2 14 3 26t1 25q-2 102 -67.5 168.5t-174.5 66.5h-307z" />
<glyph unicode="C" horiz-adv-x="1472" d="M150 594q0 31 2 60.5t8 62.5q27 147 106.5 277t196.5 226.5t260 153t295 56.5q129 0 239.5 -42t192.5 -116q9 -9 9 -21q0 -9 -7 -16q-6 -8 -16.5 -9t-20.5 7q-74 68 -175 105.5t-222 37.5q-141 0 -276.5 -52t-245 -143t-185 -214t-100.5 -260q-4 -29 -7 -56.5t-3 -56.5 q0 -117 42 -217.5t117.5 -173t181 -114.5t232.5 -42q121 0 236.5 38t216.5 108q10 6 20 4t17 -11q14 -23 -9 -36q-106 -72 -229 -113t-252 -41q-137 0 -250.5 45t-199.5 125q-84 82 -129 190.5t-45 237.5z" />
<glyph unicode="D" horiz-adv-x="1472" d="M217 25l242 1382q6 20 26 20q0 2 2 3h275q133 0 243.5 -46.5t192.5 -126.5q80 -80 125 -188t45 -235q0 -63 -12 -127q-27 -147 -104.5 -276.5t-191.5 -227t-254 -152.5t-288 -55h-274h-2h-4q-10 2 -18 10q-5 5 -4 12q0 3 1 7zM272 47h246q137 0 268.5 53.5t239 143.5 t181 212t98.5 261q6 29 8 58.5t2 58.5q0 117 -40 216t-114 171.5t-175 113.5t-224 41h-254z" />
<glyph unicode="E" horiz-adv-x="1214" d="M215 31l244 1382q4 25 28 21q0 2 2 2h760q27 0 27 -27t-27 -27h-743l-113 -639h645q27 0 27 -24q0 -27 -27 -27h-653l-113 -639h734q27 0 26 -26q0 -25 -26 -25h-760h-2h-2h-6q-10 2 -16 10q-5 6 -5 14v5z" />
<glyph unicode="F" horiz-adv-x="1228" d="M215 27l244 1382q6 25 28 21l2 2h760q27 0 27 -27t-27 -27h-741l-113 -639h645q25 0 25 -24q0 -27 -25 -27h-655l-119 -670q-4 -20 -24 -20h-4q-10 2 -17.5 10t-5.5 19z" />
<glyph unicode="G" horiz-adv-x="1638" d="M150 598q0 57 12 123q27 147 106.5 277t195.5 226.5t259 153t295 56.5q131 0 240.5 -42t193.5 -116q10 -10 10 -19t-8 -18q-8 -8 -18.5 -9t-18.5 7q-76 68 -176 105.5t-223 37.5q-141 0 -276.5 -52t-245 -143t-184 -214t-99.5 -260q-6 -29 -8 -56.5t-2 -56.5 q0 -117 42 -217t116.5 -173t180 -115t232.5 -42q119 0 232.5 37t214.5 105l82 466h-424q-25 0 -25 25q0 27 25 27h450h2h6q27 -4 23 -31l-90 -506q0 -2 -4 -10t-9 -10q-106 -72 -229 -113t-254 -41q-135 0 -249.5 45t-198.5 125q-84 82 -130 190.5t-46 237.5z" />
<glyph unicode="H" horiz-adv-x="1556" d="M215 29l244 1382q2 11 10 17q6 5 13 4h5q27 -4 23 -31l-117 -660h809l4 -2l119 672q3 22 24 22q3 0 7 -1q21 -3 21 -23q0 -4 -1 -8l-243 -1381q-4 -22 -25 -22h-2h-4q-25 6 -21 31l117 659h-815l-117 -668q-4 -22 -24 -22h-2h-4q-22 5 -22 24q0 4 1 7z" />
<glyph unicode="I" horiz-adv-x="624" d="M229 29l244 1382q3 11 11 17q6 5 13 4h5q23 -3 22 -23v-8l-243 -1381q-4 -22 -25 -22h-2h-4q-22 5 -22 24q0 4 1 7z" />
<glyph unicode="J" horiz-adv-x="1216" d="M88 336q-1 3 -1 7q0 21 24 24q24 4 28 -23q8 -63 38 -116.5t75 -92.5t105.5 -60.5t131.5 -21.5q88 0 172 34t154 92.5t117 136t63 167.5l164 930q3 22 24 22q3 0 7 -1q21 -3 21 -23q0 -3 -1 -8l-163 -930q-18 -98 -70.5 -184t-127.5 -149.5t-168 -101.5t-192 -38h-2 q-80 0 -148.5 25.5t-120.5 70.5t-86 106.5t-44 133.5z" />
<glyph unicode="K" horiz-adv-x="1464" d="M215 33l244 1382q6 25 30 21q10 -2 17.5 -11.5t3.5 -19.5l-162 -920l1110 945q9 7 18 7h2q10 -1 17 -10t7 -18q0 -11 -9 -18l-694 -590l491 -758q4 -10 3 -20.5t-11 -16.5q-8 -4 -14 -4q-14 0 -23 12l-487 752l-416 -352l-6 -6l-70 -383q-4 -23 -24 -23h-4q-24 7 -24 25 q0 3 1 6z" />
<glyph unicode="L" horiz-adv-x="1267" d="M215 35l244 1382q3 22 23 22q3 0 7 -1q25 -4 21 -31l-238 -1352h734q27 0 26 -24q0 -27 -26 -27h-760h-2h-2h-4q-24 7 -24 25q0 3 1 6z" />
<glyph unicode="M" horiz-adv-x="1777" d="M215 27l244 1382q6 20 26 21h4q16 0 23 -13l414 -762l686 766q8 8 22 9h6q22 -3 22 -24q0 -3 -1 -7l-244 -1381q-4 -22 -22 -22h-2h-7q-25 6 -20 31l229 1298l-651 -727q-8 -8 -20 -8h-2h-4q-16 0 -23 12l-395 729l-234 -1313q-4 -22 -22 -22h-2h-4q-24 7 -24 25q0 3 1 6 z" />
<glyph unicode="N" horiz-adv-x="1617" d="M217 35l242 1374q0 2 2 4q0 12 12 23q7 3 14 3q3 0 7 -1q10 -2 14 -13l717 -1319l229 1303q6 25 31 21q10 -2 17 -10q4 -5 4 -12q0 -3 -1 -7l-241 -1374q-4 -23 -25 -23h-6q-10 2 -19 14q-2 2 -2 3.5t-2 3.5l-712 1310l-232 -1308q-4 -23 -24 -23h-4q-22 7 -22 23 q0 4 1 8z" />
<glyph unicode="O" horiz-adv-x="1740" d="M150 588q0 63 12 131q27 147 101.5 277t183 227.5t240.5 153t271 55.5q125 0 229.5 -45.5t178.5 -124.5q76 -78 117 -185.5t41 -232.5q0 -33 -2 -66t-9 -67q-27 -147 -102.5 -276.5t-183 -226.5t-239.5 -153.5t-273 -56.5q-125 0 -228.5 45t-179.5 125 q-76 78 -116.5 185.5t-40.5 234.5zM201 588q0 -117 37.5 -215.5t105.5 -170t162 -112.5t209 -41q129 0 253 53.5t225 143.5t172.5 212t96.5 261q4 33 7.5 63.5t3.5 61.5q0 115 -38 213t-105.5 169.5t-163 112.5t-208.5 41h-2q-129 0 -251.5 -53t-224 -143t-172 -213 t-95.5 -260q-12 -66 -12 -123z" />
<glyph unicode="P" horiz-adv-x="1193" d="M217 35l244 1380q2 10 8 16.5t16 4.5l2 2h418q74 0 135.5 -26t108.5 -71q45 -45 69.5 -105t24.5 -132q0 -33 -6 -70q-14 -82 -57 -153.5t-106.5 -125t-140.5 -84t-159 -30.5h-399l-107 -616q-6 -20 -26 -21h-4q-10 2 -18 12q-5 6 -4 12q0 4 1 7zM385 692h389 q72 0 140.5 28t125 75t95.5 111.5t51 135.5q6 33 6 62q-2 123 -80 201.5t-207 78.5h-397z" />
<glyph unicode="Q" horiz-adv-x="1728" d="M205 723q27 152 103.5 285t187 232t246 156.5t278.5 57.5q141 0 256 -57.5t190.5 -156.5t106.5 -232q17 -71 17 -148q0 -66 -13 -137q-20 -113 -69.5 -215t-122 -189.5t-161.5 -155t-190 -110.5l-323 -137q49 0 101 -11t101 -44q76 -51 153 -83t161 -32q68 0 142.5 24.5 t162.5 90.5q10 4 21.5 3t17.5 -9q6 -23 -12 -39q-94 -66 -179.5 -93.5t-160.5 -27.5q-98 0 -180.5 33.5t-159.5 85.5q-43 29 -88.5 40t-90.5 11q-66 0 -123 -17.5t-79 -27.5q-12 -4 -15 -4q-4 -2 -6 -2q-16 -10 -26 2q-6 2 -11 12q-2 10 3.5 21.5t15.5 15.5l319 135h-16 q-141 0 -256 56.5t-190.5 154.5t-106.5 230q-17 71 -17 146q0 66 13 136zM256 723q-12 -64 -12 -125q0 -70 16 -136q29 -122 99.5 -213t176 -144.5t236.5 -53.5t255 53.5t226.5 144.5t174 213t98.5 261q12 65 12 127q0 71 -16 137q-29 123 -99.5 215t-176 144.5t-236.5 52.5 t-256 -52.5t-227.5 -144.5t-174 -215t-96.5 -264z" />
<glyph unicode="R" horiz-adv-x="1280" d="M186 33l244 1380q4 23 27 23h2h415q74 0 136.5 -26t107.5 -71q96 -92 96 -237q0 -33 -6 -70q-12 -68 -43.5 -129t-79 -110.5t-105.5 -85t-124 -54.5q10 -4 22.5 -10t24.5 -12q29 -18 56.5 -43t50 -56.5t37 -72.5t14.5 -90q0 -31 -6 -64q-8 -43 -11.5 -76.5t-3.5 -58.5 q0 -39 6.5 -58.5t10.5 -27.5q6 -8 9 -8h5h4q23 8 31 -19q4 -10 -1 -19t-15 -13q-2 0 -6.5 -1t-12.5 -1q-12 0 -27.5 7t-27.5 23q-27 35 -27 117q0 59 15 143q4 16 4 29.5v26.5q0 63 -23.5 106t-58.5 74q-35 33 -75 50t-69 28q-16 6 -26.5 8t-14.5 4h-395l-108 -616 q-4 -20 -25 -21h-6q-22 3 -22 24q0 3 1 7zM354 690h389q72 0 141.5 27.5t126 75t95.5 112t51 135.5q4 16 4 30.5v31.5q0 61 -20.5 112.5t-58.5 88t-91 58t-117 21.5h-397z" />
<glyph unicode="S" horiz-adv-x="1366" d="M141 203q-8 7 -8 14q0 9 10 19q16 16 33 4q35 -35 83 -70t106.5 -62.5t126 -45t141.5 -17.5q98 0 189 26.5t163 73.5t119 107.5t59 128.5q3 21 3 40q0 45 -16 82q-24 52 -79 95q-55 41 -137 71.5t-186 49.5l-5 2q-98 18 -178 47t-135 72q-57 43 -85 101q-18 38 -18 83 q0 24 5 51q14 76 63 141.5t123 112.5t166 75t188 28q70 0 128.5 -15.5t108.5 -39t93 -53.5t80 -58q8 -4 8 -13.5t-6 -17.5q-18 -18 -35 -8q-37 29 -78 57.5t-88 51t-101 36.5t-118 14q-92 0 -175 -25.5t-148 -68.5q-66 -43 -109 -98t-53 -119q-3 -20 -3 -38q0 -94 85 -158 q51 -39 127 -67t172 -46l4 -2q106 -20 192 -51t148 -78q61 -45 91 -109q19 -41 19 -88q0 -27 -6 -57q-16 -82 -69.5 -151.5t-132 -121t-178 -81t-203.5 -29.5q-80 0 -152 18.5t-133 48t-111.5 66.5t-87.5 72z" />
<glyph unicode="T" horiz-adv-x="1327" d="M102 1401q0 26 23 26h2h999q25 0 25 -26q0 -27 -25 -27h-477l-239 -1360q-6 -20 -27 -20h-4q-10 2 -17.5 11t-3.5 20l238 1349h-469q-25 0 -25 27z" />
<glyph unicode="U" horiz-adv-x="1667" d="M215 473q0 25 2 50.5t6 49.5l148 834q3 24 24 24q3 0 6 -1q10 -4 16.5 -12.5t4.5 -18.5l-148 -834q-8 -41 -8 -92q0 -92 33 -170t89 -134t136 -89t176 -33q109 0 212.5 42t187.5 113.5t142 167t77 203.5l147 834q3 24 24 24q3 0 7 -1q22 -5 22 -24q0 -3 -1 -7l-148 -834 q-20 -119 -82.5 -222t-154 -180t-203 -122t-230.5 -45q-106 0 -195 36t-155 101q-66 66 -100.5 152t-34.5 188z" />
<glyph unicode="V" horiz-adv-x="1536" d="M117 1403q-1 4 -1 7q0 20 21 24q4 1 8 1q16 0 23 -20l324 -1321l792 1329q9 14 21 14q7 0 16 -5q14 -8 14 -20q0 -7 -6 -15l-825 -1383l-6 -6l-2 -2l-9 -4h-6h-8l-2 2q-2 0 -2 2h-2l-6 6q-4 4 -4 8z" />
<glyph unicode="W" horiz-adv-x="2256" d="M125 1401q-1 4 -1 8q0 20 19 23q6 2 11 2q16 0 22 -21l324 -1321l571 959q10 16 27 12q20 4 28 -19l232 -952l794 1329q7 14 19 14q7 0 16 -5q14 -8 14 -20q0 -7 -6 -15l-825 -1383l-6 -6v-2q-4 -2 -5 -2t-5 -2h-6h-7q-2 2 -4 2t-2 2h-2q-4 4 -4 6h-2q-4 4 -4 8l-236 959 l-575 -965l-6 -6l-2 -2q-2 -2 -4 -2t-4 -2h-7h-2h-6l-2 2q-2 0 -4 2l-6 6h-2q0 4 -4 8z" />
<glyph unicode="X" horiz-adv-x="1478" d="M160 2q-9 9 -9 18.5t9 18.5l612 678l-373 674q-6 10 -3 20t14 14q7 4 13 4l7 -1q10 -3 14 -13l365 -659l604 665q7 9 17 9q9 0 20 -7q9 -9 9 -18t-9 -19l-614 -677l374 -674q6 -10 3 -20.5t-13 -16.5q-4 -2 -12 -2q-16 0 -23 12l-366 660l-602 -664q-6 -8 -19 -8 q-10 0 -18 6z" />
<glyph unicode="Y" horiz-adv-x="1236" d="M116 1411q3 10 13 14q7 4 14 4q3 0 7 -1q10 -3 14 -13l368 -663l609 669q10 10 19 10t18 -8q10 -10 10 -19t-8 -18l-627 -692h-2l-119 -678q-4 -20 -24 -20h-7q-10 2 -16 11t-4 20l119 675l-381 689q-4 7 -4 13q0 4 1 7z" />
<glyph unicode="Z" horiz-adv-x="1366" d="M145 18v7v4q0 4 2 6q2 4 3 4l2 4l1214 1337h-952q-25 0 -25 27t25 27h1009q4 0 4 -2h7l4 -2q2 -2 4 -3v-2l4 -4q0 -2 1 -2t1 -2v-4q2 -2 2 -6v-4q0 -2 -2 -4q0 -2 -1 -3t-1 -3l-2 -2l-1215 -1340h953q25 0 24 -26q0 -25 -24 -25h-1012q-6 0 -8 2q-2 0 -4 2q-2 0 -2 1 t-2 1l-4 4q-2 4 -3 4q0 4 -2 4z" />
<glyph unicode="[" horiz-adv-x="880" d="M205 -213l282 1593q4 23 21.5 38.5t40.5 15.5h475q35 0 33 -29q-4 -16 -14.5 -18.5t-26.5 -2.5h-477l-283 -1601h477q35 0 33 -27q-4 -16 -14.5 -19t-26.5 -3h-475q-23 0 -36 15t-9 38z" />
<glyph unicode="\" horiz-adv-x="1024" d="M23 1397q-4 10 1 19t15 14q10 4 19.5 -0.5t13.5 -14.5l579 -1376q11 -25 -12 -35q-2 -2 -10 -2q-18 0 -23 16z" />
<glyph unicode="]" horiz-adv-x="880" d="M115 -238q4 16 14 18.5t27 2.5h477l282 1601h-477q-35 0 -32 27q4 16 14 19.5t26 3.5h476q23 0 36 -15.5t9 -38.5l-283 -1593q-4 -23 -21.5 -38t-39.5 -15h-476q-35 0 -32 28z" />
<glyph unicode="_" horiz-adv-x="1228" d="M-43 -293q4 18 18.5 26.5t32.5 8.5h684q18 0 30.5 -8t8.5 -27q-4 -18 -19.5 -26.5t-33.5 -8.5h-684q-18 0 -29.5 8.5t-7.5 26.5z" />
<glyph unicode="`" horiz-adv-x="1024" d="M340 1450q4 8 6 19.5t31 11.5q33 0 57 -37l127 -191q8 -12 8 -22q0 -14 -14 -6q-16 6 -24.5 9t-24.5 21l-146 158q-10 10 -17 19.5t-3 17.5z" />
<glyph unicode="a" horiz-adv-x="1267" d="M82 414q0 23 2 46t6 48q18 102 70.5 191t127 156t166 105.5t189.5 38.5h10q81 1 149 -29q72 -32 126 -89q61 -63 88 -156l47 254q3 21 20 21q4 0 9 -1q21 -3 21 -21q0 -3 -1 -7l-84 -473l-82 -471q-4 -20 -24 -21h-4q-27 4 -21 29l41 237q-39 -59 -90 -108t-111.5 -84 t-126 -55.5t-135.5 -20.5q-86 0 -158.5 32t-123.5 89q-53 53 -82 128t-29 161zM133 414q0 -78 25.5 -143.5t70.5 -112.5t107.5 -74t138.5 -27q86 0 170 35t152.5 96.5t117 143.5t64.5 176q6 43 6 84q0 78 -24.5 143.5t-69.5 112.5t-108.5 73.5t-139.5 26.5h-2 q-86 0 -169 -35.5t-150.5 -97t-116 -143.5t-64.5 -174q-8 -39 -8 -84z" />
<glyph unicode="b" horiz-adv-x="1351" d="M195 29l81 475l164 909q5 22 24 22q3 0 7 -1q27 -4 21 -29l-121 -674q82 121 208 195.5t267 77.5q90 0 164.5 -32t130.5 -91q55 -55 84.5 -131t29.5 -162q0 -23 -2 -47.5t-6 -46.5l-26 6l26 -6q-18 -102 -71.5 -192.5t-130 -157t-172 -106.5t-195.5 -40q-90 0 -165 31.5 t-128 89.5q-63 63 -96 157l-45 -256q-4 -20 -25 -20h-4q-21 3 -21 20q0 4 1 9zM322 414q0 -78 26.5 -144.5t73.5 -115t111.5 -76t144.5 -27.5q88 0 175 36t157.5 97.5t120 144.5t65.5 175q6 43 6 84q0 78 -25.5 143.5t-72.5 113.5t-112.5 75.5t-145.5 27.5h-2 q-90 0 -175 -35.5t-155 -97t-119 -144.5t-65 -177q-8 -35 -8 -80z" />
<glyph unicode="c" horiz-adv-x="1169" d="M119 418q0 39 6 86q18 104 74.5 194t137.5 157t181 105.5t207 38.5h12q85 1 156 -27q76 -30 135 -83q9 -7 9 -19q0 -9 -7 -16q-8 -8 -18.5 -9t-18.5 7q-51 45 -118.5 70.5t-149.5 25.5q-96 0 -188.5 -35.5t-167 -97t-125.5 -144.5t-68 -177q-6 -37 -6 -76 q0 -80 28.5 -147.5t79 -117t122 -77t157.5 -27.5q82 0 161 25.5t146 72.5q10 6 20.5 4.5t16.5 -10.5q14 -23 -8 -37q-74 -51 -159 -79.5t-177 -28.5q-96 0 -176 31.5t-139 89.5q-59 57 -91 134t-32 167z" />
<glyph unicode="d" horiz-adv-x="1351" d="M123 412q0 23 2 46t6 46q18 104 72.5 194t131.5 158t172 108t198 40q88 0 163.5 -33t128.5 -90q66 -63 95 -158l127 690q3 22 23 22q3 0 7 -1q22 -3 22 -23q0 -3 -1 -6l-250 -1389q-4 -20 -25 -20h-6q-25 4 -20 29l41 241q-78 -123 -206 -196.5t-269 -75.5 q-90 0 -166 31.5t-131 89.5q-55 57 -85 133t-30 164zM176 412q0 -78 25.5 -144.5t74 -116t114 -77t145.5 -27.5q90 0 176 36t156.5 98.5t119.5 145.5t66 177q8 35 8 82q0 78 -26.5 144.5t-74 114.5t-112 75.5t-143.5 27.5q-90 0 -177.5 -34.5t-158 -97t-121 -145.5 t-66.5 -177q-6 -41 -6 -82z" />
<glyph unicode="e" horiz-adv-x="1247" d="M119 416q0 51 8 90q18 102 71.5 192t130.5 158t171 106.5t194 38.5h11q84 1 154 -29q75 -32 128 -89q115 -115 115 -295v-27.5t-2 -28.5q0 -2 -1 -4t-1 -4q-8 -18 -25 -18h-893q-2 -4 -2 -10q-4 -18 -6 -39t-2 -41q0 -78 25.5 -144.5t73.5 -114.5t114 -76t145 -28 q113 0 218.5 55.5t181.5 149.5q14 18 37 4q18 -18 4 -37q-84 -102 -199 -162.5t-242 -62.5q-92 0 -166.5 31.5t-128.5 89.5q-55 55 -84.5 131t-29.5 164zM193 557h856q2 10 2 31q0 78 -26 144.5t-73 114.5t-112.5 75.5t-145.5 27.5q-82 0 -160.5 -29.5t-146.5 -83t-119 -126 t-75 -154.5z" />
<glyph unicode="f" horiz-adv-x="741" d="M135 983q4 27 31 27h164l24 135q27 154 101 223q41 37 91 51.5t109 14.5q24 0 24 -19q0 -3 -1 -6q-8 -27 -31 -27q-109 0 -160 -49q-27 -25 -47 -70.5t-32 -117.5l-25 -135h172q10 0 17.5 -8.5t2.5 -18.5q-4 -27 -30 -27h-172l-164 -929q-4 -27 -31 -27q-25 0 -20 27 l164 929h-164q-24 0 -24 20q0 4 1 7z" />
<glyph unicode="g" horiz-adv-x="1351" d="M125 410q0 23 2 46t6 48q18 102 70.5 192t127.5 158t167 107.5t190 39.5q88 0 160 -31.5t125 -88.5q63 -66 92 -156l45 254q2 10 11 17q5 5 12 5q4 0 8 -2q21 -3 21 -21q0 -3 -1 -7l-84 -475v-2l-80 -443q-18 -96 -69 -182t-125 -149.5t-166 -100.5t-191 -37 q-111 0 -198 49q-10 4 -13.5 14.5t3.5 20.5q4 10 14 12.5t20 -2.5q39 -20 81 -31.5t93 -11.5q88 0 171 34t151 91.5t115 135t63 165.5l37 209q-80 -121 -202 -194.5t-261 -73.5h-10q-82 0 -150 30q-71 33 -124 87q-53 57 -83 131q-28 69 -28 151v11zM176 410 q0 -78 25.5 -143.5t70.5 -114t108.5 -75t139.5 -26.5q88 0 171 35t152.5 96.5t118 144.5t64.5 177q6 43 6 84q0 78 -25.5 143.5t-70.5 113.5t-108.5 75.5t-139.5 27.5h-2q-86 0 -170 -35.5t-151.5 -97t-115.5 -144.5t-65 -177q-8 -39 -8 -84z" />
<glyph unicode="h" d="M193 27l102 575l141 807q2 11 12 17q7 5 14 4h5q25 -4 20 -31l-104 -598q68 92 169 147.5t216 55.5q76 0 139.5 -26t110.5 -73q96 -92 96 -241q0 -35 -6 -72l-102 -574q-4 -22 -23 -22h-2h-6q-25 4 -21 31l103 575q6 31 6 62q-2 125 -83 205.5t-212 82.5 q-74 0 -144.5 -28.5t-128 -77.5t-97.5 -114.5t-52 -139.5l-102 -574v-4q-2 -2 -2 -3t-2 -3q0 -2 -2 -2q0 -4 -5 -4l-2 -2t-6 -2q-2 -2 -4 -2h-2h-6q-21 3 -21 24q0 3 1 7z" />
<glyph unicode="i" horiz-adv-x="575" d="M195 31l165 954q4 10 12.5 16.5t18.5 2.5q27 -4 21 -29l-166 -955q-4 -20 -25 -20h-6q-10 4 -16 12q-5 6 -5 14q0 2 1 5zM408 1243l10 49q2 10 10 16q6 5 15 5h6q10 -1 16 -11q4 -7 5 -15q0 -2 -1 -5l-10 -49q-5 -21 -25 -21h-6q-10 2 -16 10q-4 6 -4 15v6z" />
<glyph unicode="j" horiz-adv-x="509" d="M-2 -355.5q8 9.5 18 9.5h5q38 0 73 30q37 31 45 72l215 1227q4 10 12.5 16.5t16.5 4.5q27 -4 23 -31l-220 -1223q-10 -61 -60 -104t-110 -43q-26 0 -26 20q0 12 8 21.5zM406 1241l10 45q0 10 10 18q8 5 16 5h4q8 -2 14.5 -10.5t4.5 -18.5l-10 -49q0 -10 -7.5 -15.5 t-15.5 -5.5h-8q-19 3 -19 22q0 4 1 9z" />
<glyph unicode="k" horiz-adv-x="1146" d="M193 37l243 1382q2 11 10 17q6 5 14 4h5q27 -4 22 -31l-186 -1055l772 658q8 8 18.5 7t18.5 -9q7 -9 7 -18q0 -12 -9 -19l-494 -420l328 -506q6 -10 4 -20.5t-10 -16.5q-12 -4 -14 -4q-16 0 -23 12l-326 502l-278 -237q-4 -4 -8 -4l-43 -250q-4 -23 -27 -23h-4 q-21 3 -21 23q0 4 1 8z" />
<glyph unicode="l" horiz-adv-x="509" d="M209 29l244 1382q2 11 10 17q6 5 13 4h5q24 -3 24 -24q0 -3 -1 -7l-244 -1381q-4 -22 -25 -22h-2h-4q-10 2 -17 11q-4 6 -4 12q0 4 1 8z" />
<glyph unicode="m" horiz-adv-x="1947" d="M193 31l102 573v2l65 375q5 21 23 21q4 0 8 -1q25 -4 21 -30l-31 -168q68 88 169 143t214 55q76 0 138.5 -25.5t109.5 -70.5q66 -72 86 -162q31 55 76 103.5t99 82.5t116.5 53t128.5 19q74 0 136 -25.5t109 -70.5q96 -96 97 -239q0 -33 -7 -70l-100 -576q-4 -20 -27 -20 h-4q-24 4 -20 31l100 573q6 33 6 62q0 61 -21.5 113t-59 90t-92 59.5t-117.5 21.5q-72 0 -141.5 -27.5t-126 -74.5t-96.5 -110.5t-54 -135.5q0 -4 -2 -6l-99 -576q-2 -14 -18 -18q-2 -2 -4 -2h-2h-6q-25 4 -21 31l99 573q2 2 2 6q4 14 4 27.5v28.5q0 61 -20.5 113t-58.5 90 t-91.5 59.5t-118.5 21.5q-74 0 -143.5 -27.5t-126 -75.5t-96.5 -111.5t-52 -137.5l-102 -578q0 -4 -4 -8v-2q-4 -4 -7 -4l-2 -2t-6 -2q0 -2 -4 -2h-2h-4q-23 3 -23 23q0 4 1 8z" />
<glyph unicode="n" d="M193 27l102 577v2l65 375q3 21 23 21q4 0 8 -1q10 -2 16.5 -11t4.5 -19l-31 -168q68 88 169 143t218 55q72 0 135.5 -25.5t110.5 -70.5q45 -45 69.5 -107.5t24.5 -133.5q0 -31 -6 -68l-98 -580q-2 -10 -10.5 -15t-18.5 -5h-4q-25 4 -21 31l103 577q6 31 6 60 q0 61 -21.5 113t-60.5 91t-92.5 60.5t-116.5 21.5q-74 0 -144.5 -27.5t-129 -75.5t-98.5 -112.5t-52 -138.5l-100 -580q0 -4 -4 -8q0 -2 -2 -2q0 -4 -5 -4l-2 -2t-6 -2q-2 -2 -4 -2h-4h-4q-21 3 -21 23q0 4 1 8z" />
<glyph unicode="o" horiz-adv-x="1280" d="M143 414q0 51 9 92q18 102 70 193.5t128 159t168 106.5t191 39q88 0 160.5 -32t125.5 -87t82 -131t29 -164q0 -51 -8 -92l-25 4l25 -4q-18 -102 -70.5 -192.5t-128.5 -158t-168 -107.5t-190 -40q-88 0 -161 31.5t-126 87.5q-53 57 -82 132t-29 163zM195 414 q0 -78 25.5 -144.5t70.5 -115t108.5 -76t141.5 -27.5q86 0 170 36t153.5 97.5t118 144.5t64.5 177q8 39 8 84q0 78 -25.5 144.5t-72 114.5t-110 75.5t-138.5 27.5h-2q-86 0 -170 -35.5t-153 -97t-117 -144.5t-64 -177q-8 -39 -8 -84z" />
<glyph unicode="p" horiz-adv-x="1351" d="M193 -410l161 920v2l82 469q3 21 24 21q3 0 7 -1q27 -4 22 -30l-43 -236q80 119 205 192.5t267 73.5q88 0 163.5 -31.5t128.5 -86.5t83 -130t30 -161q0 -23 -2 -45.5t-6 -44.5q-18 -102 -71.5 -191.5t-130.5 -157t-170 -106.5t-193 -39q-88 0 -162 32t-129 89 q-63 63 -92 156l-123 -703q-4 -22 -25 -22h-2q-2 0 -4 2q-21 3 -21 21q0 3 1 7zM397 422q0 -78 27 -143.5t73 -113.5t110.5 -76t142.5 -28q88 0 174 35t155.5 96.5t118.5 143.5t66 174q6 43 6 82q0 76 -25.5 141.5t-72 113.5t-112 74.5t-142.5 26.5h-3q-88 0 -173 -34.5 t-154.5 -96t-118.5 -142.5t-63 -173q-8 -35 -9 -80z" />
<glyph unicode="q" horiz-adv-x="1351" d="M123 418q0 47 6 90q18 102 71.5 191t130.5 156t170 105.5t193 38.5q88 0 162 -30.5t127 -85.5q35 -33 57.5 -73t36.5 -85l45 254q3 21 23 21q3 0 8 -1q10 -2 16.5 -10t4.5 -18l-82 -471h-2l-162 -920q-4 -22 -25 -22h-2q-2 0 -4 2q-25 4 -20 28l118 686 q-78 -119 -202.5 -193.5t-266.5 -74.5q-88 0 -162.5 32t-127.5 89q-53 55 -83 130t-30 161zM156 504l24 -4q-6 -41 -6 -82q0 -78 25.5 -143.5t72.5 -112.5t111.5 -75t142.5 -28q88 0 174 35t156 96.5t119 143.5t65 174q6 43 7 82q0 78 -26 143.5t-73 113.5t-111.5 74.5 t-142.5 26.5q-90 0 -175 -34.5t-154.5 -96t-118.5 -143.5t-66 -174z" />
<glyph unicode="r" horiz-adv-x="899" d="M193 27l167 952q3 23 24 23q3 0 7 -1q25 -6 21 -30l-58 -326q16 25 37 52.5t43 56.5q37 45 84 89t102.5 79.5t119 57t134.5 21.5q27 0 27 -26q0 -25 -27 -25q-94 0 -175 -42t-146.5 -102.5t-113.5 -128t-77 -116.5q-16 -29 -23 -46t-11 -23l-84 -474q-4 -20 -25 -20h-6 q-11 2 -17 10q-4 5 -4 12q0 4 1 7z" />
<glyph unicode="s" horiz-adv-x="1007" d="M117 180q23 23 37 4q47 -47 127.5 -89t179.5 -42q66 0 126 18.5t107 49.5q100 63 117 155q2 13 2 26q0 65 -61 112q-37 29 -92.5 48t-127.5 34h-2q-66 14 -121 33.5t-96 50.5q-41 28 -61 72q-12 28 -12 60q0 18 4 38q10 55 45 101t87 80t116.5 53.5t132.5 19.5 q96 0 163.5 -38t120.5 -77q7 -7 9 -17q0 -2 1 -2q0 -9 -8 -16q-18 -23 -37 -8q-53 39 -113.5 72.5t-146.5 33.5q-59 0 -114.5 -16t-98.5 -45q-45 -29 -72.5 -64.5t-33.5 -76.5q-3 -15 -3 -28q0 -24 9 -43q14 -30 47 -56q35 -27 86 -45.5t113 -30.5h4q72 -16 133 -37t104 -53 q40 -33 62 -77q15 -30 15 -68q0 -17 -3 -36q-10 -59 -49 -109t-94 -87t-125 -57.5t-141 -20.5q-113 0 -199 47t-139 96q-7 5 -7 14q0 12 9 21z" />
<glyph unicode="t" horiz-adv-x="819" d="M90 979q4 25 29 25h172l71 407q4 25 31 25q25 0 21 -25l-70 -407h164q23 0 23 -18q0 -3 -1 -7q-8 -27 -30 -27h-166l-141 -792q-1 -9 -1 -17q0 -34 20 -58q24 -30 69 -30q25 0 20 -26q-4 -27 -31 -27q-66 0 -102 46q-29 36 -29 85q0 13 2 27l142 792h-172q-9 0 -17 8 q-5 6 -5 12q0 4 1 7z" />
<glyph unicode="u" d="M170 336q0 39 8 72l101 571q3 23 22 23q4 0 8 -1q10 -4 16.5 -12t4.5 -18l-103 -572q-4 -16 -4 -31.5v-31.5q0 -61 20.5 -113.5t59.5 -90.5t92.5 -59.5t118.5 -21.5q72 0 141.5 27.5t126 76t96.5 114t52 139.5l102 571q2 10 10 17q7 5 15 5h4q23 -7 23 -23q0 -3 -1 -7 l-102 -572q-14 -84 -58 -156.5t-107.5 -127t-141.5 -85t-160 -30.5q-154 0 -246 96q-47 47 -72.5 107.5t-25.5 132.5z" />
<glyph unicode="v" horiz-adv-x="1191" d="M111 969q-1 4 -1 7q0 20 21 23q5 2 10 2q15 0 21 -20l217 -887l532 895q7 10 17 11h4q8 0 16 -3q14 -8 14 -19q0 -7 -6 -15l-565 -949l-6 -6v-2q-8 -4 -10 -4h-6h-7q-2 0 -2 1t-2 1t-2 2q-2 2 -3 2t-3 2l-2 2t-2 4t-2 4z" />
<glyph unicode="w" horiz-adv-x="1763" d="M121 967q-1 4 -1 7q0 20 21 23q5 2 10 2q15 0 21 -20l217 -891l385 643q10 16 27 12q20 0 24 -18l158 -637l537 899q7 13 18 13q7 0 16 -5q14 -9 14 -20q0 -7 -5 -14l-570 -953q0 -4 -6 -6v-2l-8 -4h-6h-2h-6l-2 2q-2 0 -5 2q-2 2 -3 2t-3 2q0 2 -2 2q-2 2 -2 4t-2 4 l-155 643l-390 -649l-6 -6v-2l-8 -4h-2h-6h-6q-2 2 -4 2t-2 2l-7 6h-2q-2 2 -2 4t-2 4z" />
<glyph unicode="x" horiz-adv-x="1167" d="M145 43l420 459l-252 459q-6 10 -3 20t14 14q6 4 12 4q11 0 22 -14l244 -444l404 450q10 10 19 10l17 -8q10 -10 10 -19t-8 -18l-415 -458l252 -461q10 -20 -11 -35q-4 -2 -12 -2q-16 0 -22 12l-244 445l-408 -449q-6 -8 -18 -8q-10 0 -19 6q-10 10 -10 19t8 18z" />
<glyph unicode="y" horiz-adv-x="1204" d="M113 -332q4 10 14 12.5t20 -2.5q76 -43 177 -43q88 0 171 33t151.5 91.5t115.5 136t61 165.5l27 142q-66 -92 -167 -146.5t-216 -56.5q-76 0 -136.5 25.5t-107.5 72.5q-47 45 -72.5 106.5t-25.5 133.5q0 37 8 70l100 573q5 21 23 21q4 0 8 -1q10 -2 16.5 -10t4.5 -18 l-101 -574q-6 -35 -6 -61q0 -61 20.5 -113.5t59.5 -90.5t91 -59.5t118 -21.5q74 0 143.5 28t126 76t96 112.5t52.5 138.5l55 305l47 268q5 21 23 21q3 0 6 -1q10 -2 17 -10q4 -5 4 -11q0 -3 -1 -7l-100 -574l-62 -346q-18 -98 -69 -184t-125 -149.5t-166 -100.5t-190 -37 q-55 0 -105.5 13.5t-95.5 35.5q-13 9 -13 23q0 6 3 14z" />
<glyph unicode="z" horiz-adv-x="1134" d="M125 23q0 2 1 2t1 2v6l4 4q0 2 2 4l825 911h-639q-27 0 -26 25q0 27 26 27h699q2 0 4 -3h4q2 0 6 -4h2v-2q4 0 4 -4q0 -2 1 -2t1 -2q2 0 2 -4v-4v-2v-4q0 -2 -2 -4q0 -2 -1 -3t-1 -3l-2 -2l-827 -912h641q25 0 24 -26q0 -25 -24 -25h-698q-6 0 -11 2q-2 0 -2 2q-4 0 -4 2 h-2l-2 4l-2 4q-2 2 -2 4v7h-2z" />
<glyph unicode="{" horiz-adv-x="983" d="M117 557q6 39 55 39q80 0 133 18.5t88 52t54.5 82t29.5 107.5l29 162q14 80 40.5 144.5t80 114.5t140.5 88t222 65q16 4 30.5 2t10.5 -21q-4 -12 -12 -17t-19 -10q-117 -29 -194.5 -63.5t-126.5 -78.5t-76 -102.5t-39 -133.5l-28 -154q-12 -68 -36 -117t-57.5 -84 t-76.5 -57.5t-95 -36.5q49 -16 84 -38.5t56.5 -56.5t27.5 -83t-6 -117l-29 -153q-12 -76 -7 -134.5t39 -102.5t100.5 -79t173.5 -63q8 -4 15 -10.5t3 -18.5q-4 -18 -16.5 -19t-28.5 3q-125 27 -198.5 64.5t-109.5 87.5t-41 114.5t9 144.5l29 162q10 59 8 107.5t-24.5 82 t-68.5 52t-126 18.5q-49 0 -43 39z" />
<glyph unicode="|" horiz-adv-x="585" d="M251 -260.5q-3 13.5 1 31.5l321 1822q4 18 10.5 31.5t24.5 13.5t23.5 -13t1.5 -32l-322 -1822q-4 -18 -12 -31.5t-27 -13.5q-18 0 -21 13.5z" />
<glyph unicode="}" horiz-adv-x="983" d="M113 -299q4 12 12 17.5t18 9.5q117 29 195 63.5t127 78.5t75.5 102.5t39.5 133.5l28 154q12 68 36 117t57.5 84t76.5 57.5t94 36.5q-49 16 -83.5 38.5t-56 56.5t-28 83t6.5 117l28 154q12 76 6 134t-39.5 102t-99 79t-172.5 63q-8 4 -15 10.5t-3 18.5q4 18 16.5 19 t28.5 -3q125 -27 198.5 -64.5t109.5 -87.5t41 -114.5t-9 -144.5l-29 -162q-10 -59 -8 -107.5t24.5 -82t68.5 -52t126 -18.5q49 0 43 -39t-55 -39q-80 0 -133.5 -18.5t-88 -52t-54 -82t-29.5 -107.5l-29 -162q-14 -80 -41 -144.5t-80 -114.5t-140 -88t-222 -64 q-16 -4 -30.5 -2t-10.5 20z" />
<glyph unicode="~" horiz-adv-x="942" d="M174 520q0 4 3 14.5t5 14.5q8 25 25.5 46t39 38.5t46 28t45.5 10.5q29 0 63.5 -12.5t70.5 -27t68.5 -26.5t59.5 -12q63 0 102 88q4 10 8.5 22.5t18.5 12.5q16 0 26.5 -9.5t10.5 -25.5q0 -12 -4 -25q-20 -61 -61.5 -100t-100.5 -39q-29 0 -62.5 12.5t-68.5 27.5 t-69.5 27.5t-61.5 12.5q-63 0 -98 -80q-4 -10 -10.5 -17t-22.5 -7q-33 0 -33 26z" />
<glyph unicode="&#xa1;" horiz-adv-x="516" d="M195 35l186 1067q4 20 27 20h4q10 -2 17 -11t3 -19l-186 -1065q-6 -25 -31 -21q-10 2 -17.5 10.5t-2.5 18.5zM428 1368l10 49q4 23 25 23q4 0 4 -2q27 -4 22 -29l-10 -49q-3 -27 -28 -23q-27 8 -23 31z" />
<glyph unicode="&#xa2;" horiz-adv-x="1189" d="M127 590q0 39 6 86q16 92 63.5 175t117 147.5t155.5 108.5t180 58l29 129q4 18 10 31.5t25 13.5q18 0 23 -13t1 -32l-28 -123h24q92 2 168 -27.5t135 -82.5q8 -6 9.5 -16.5t-7.5 -18.5q-8 -8 -18 -9t-19 7q-51 45 -118.5 70.5t-149.5 25.5h-18t-17 -2l-200 -893 q16 -2 32.5 -3t34.5 -1q82 0 161 25.5t146 72.5q10 6 20.5 4.5t16.5 -10.5q14 -23 -8 -37q-74 -51 -159 -79.5t-177 -28.5q-43 0 -80 6l-28 -129q-4 -18 -12.5 -31.5t-26.5 -13.5t-21.5 13.5t0.5 31.5l31 141q-53 14 -98 41t-80 62q-59 57 -91 134t-32 167zM178 590 q0 -129 70.5 -223.5t191.5 -128.5l197 874q-84 -16 -160 -57t-136 -100.5t-101 -133t-56 -155.5q-6 -37 -6 -76z" />
<glyph unicode="&#xa3;" horiz-adv-x="1318" d="M137 -2q4 18 29 20l162 19l135 600h-135q-20 0 -33.5 1t-9.5 21t19 24.5t36 4.5h135l60 262q27 117 82 211t135 160q70 57 154.5 88t178.5 31q76 0 133.5 -14.5t100.5 -41t75.5 -61.5t57.5 -74q10 -16 4 -39q-4 -23 -14 -20.5t-27 2.5q-14 0 -22.5 20.5t-14.5 28.5 q-47 72 -114.5 112t-190.5 40q-74 0 -155.5 -30t-135.5 -73q-31 -25 -61.5 -62.5t-57 -82.5t-47 -94.5t-30.5 -98.5l-60 -264h623q20 0 33.5 -4t9.5 -25q-4 -20 -19.5 -21t-35.5 -1h-623l-135 -600l778 -2q20 0 34.5 -2t10.5 -23q-4 -20 -19.5 -22t-35.5 -2h-985 q-10 0 -18.5 1t-6.5 11z" />
<glyph unicode="&#xa5;" horiz-adv-x="1404" d="M111 389q4 12 14 22.5t25 10.5h323l51 254h-323q-14 0 -20.5 7t-4.5 17q4 12 13.5 21.5t23.5 9.5h301l-342 660q-6 8 -3 18t15 16q10 6 20.5 5.5t14.5 -9.5l348 -669l625 669q23 18 37 4q8 -6 9 -16t-7 -18l-621 -660h303q12 0 20.5 -9t4.5 -22q-2 -10 -13.5 -17 t-23.5 -7h-326l-51 -254h326q12 0 19.5 -10.5t2.5 -22.5q-2 -12 -12 -19.5t-22 -7.5h-326l-70 -335q-8 -27 -30 -27q-10 0 -17.5 8.5t-3.5 18.5l70 335h-324q-31 0 -26 27z" />
<glyph unicode="&#xa8;" horiz-adv-x="1024" d="M272 1305q4 29 25.5 49t50.5 20t47.5 -20.5t14.5 -48.5q-4 -29 -26 -49.5t-50 -20.5q-29 0 -47.5 20.5t-14.5 49.5zM645 1305q4 29 25.5 49t50.5 20t48 -20.5t15 -48.5q-4 -29 -26.5 -49.5t-50.5 -20.5q-29 0 -47.5 20.5t-14.5 49.5z" />
<glyph unicode="&#xa9;" horiz-adv-x="1699" d="M109 713v4q0 152 57 286t157.5 235t236.5 160.5t292 59.5t291 -58.5t234.5 -158.5t156.5 -234.5t57 -285.5v-4q0 -152 -57 -286t-157.5 -235.5t-236.5 -161t-292 -59.5t-291 58.5t-234.5 159t-156.5 234.5t-57 286zM170 713q0 -141 51 -265t142.5 -216.5t215.5 -145.5 t269 -53t270 54t216 147.5t143.5 217t52.5 265.5v4q0 141 -51.5 265t-142.5 216t-215 145.5t-269 53.5t-270 -54.5t-216.5 -147.5t-143.5 -217t-52 -265v-4zM485 725v4q0 78 29 148.5t80 124t118.5 84t147.5 30.5q92 0 153.5 -29.5t110.5 -72.5q18 -14 19 -37 q0 -18 -13.5 -30.5t-31.5 -12.5q-14 0 -33 14q-41 35 -91 60.5t-116 25.5q-61 0 -112.5 -23.5t-89.5 -65.5t-59.5 -97t-21.5 -117v-4q0 -61 23 -117.5t60.5 -97.5t90 -65.5t111.5 -24.5q70 0 120 23.5t97 66.5q4 4 11.5 7t17.5 3q16 0 28.5 -12t12.5 -29q0 -20 -14 -30 q-57 -49 -120 -80t-155 -31q-80 0 -147.5 30.5t-117.5 83t-79 122t-29 149.5z" />
<glyph unicode="&#xad;" horiz-adv-x="835" d="M135 715q0 23 21 22h467q18 0 18 -22q0 -18 -18 -19h-467q-20 0 -21 19z" />
<glyph unicode="&#xae;" horiz-adv-x="851" d="M70 1094v2q0 74 27.5 138t75.5 113.5t113.5 78t139.5 28.5q76 0 140.5 -28.5t112.5 -77t75.5 -113t27.5 -137.5v-2q0 -74 -27.5 -138.5t-75.5 -113.5t-113.5 -78t-139.5 -29q-76 0 -140.5 29t-112.5 77t-75.5 112.5t-27.5 138.5zM90 1094q0 -70 25.5 -131.5t70.5 -107.5 t106.5 -72.5t133.5 -26.5t133.5 26.5t106.5 72.5t70.5 108.5t25.5 132.5v2q0 70 -25.5 131t-70.5 107t-106.5 73t-133.5 27t-133.5 -27t-106.5 -73t-70.5 -108.5t-25.5 -131.5v-2zM285 872q0 -10 8 -10q10 0 10 10v197h125q2 -2 4 -2t5 -1t7 -1q10 -4 26.5 -10t29.5 -21 q14 -10 23 -28.5t9 -40.5q0 -33 4.5 -50.5t10.5 -27.5q8 -16 24 -17q4 0 4 2q6 0 7 9q-4 6 -11 6q-6 0 -12 8q-4 8 -6 23.5t-2 46.5q0 37 -19.5 61.5t-42.5 36.5q-10 6 -24 10q41 12 66.5 46t25.5 79q0 53 -37 91t-90 38h-135h-2q-8 0 -8 -8v-447zM303 1087v222h127 q47 0 80 -32t33 -79t-33 -79t-80 -32h-127z" />
<glyph unicode="&#xb4;" horiz-adv-x="1024" d="M412 1231q0 10 8 22l127 191q25 37 57 37q29 0 31 -11.5t6 -19.5t-3 -17.5t-17 -19.5l-146 -158q-16 -18 -24.5 -21t-24.5 -9q-14 -8 -14 6z" />
<glyph unicode="&#xb8;" horiz-adv-x="1024" d="M348 -242q0 12 10 31l158 231h88l-133 -270q-10 -18 -20.5 -29.5t-32.5 -11.5q-25 0 -47.5 16.5t-22.5 32.5z" />
<glyph unicode="&#xbf;" horiz-adv-x="1093" d="M106 362q0 35 7 76q14 86 59 162t110.5 133.5t146.5 92t167 38.5l45 254q4 20 25 21h4q10 -2 16 -10.5t2 -18.5l-45 -264q-2 -2 -2 -4q0 -25 -25 -25q-80 0 -155.5 -30.5t-137 -84t-104.5 -124t-57 -150.5q-6 -35 -6 -66q0 -68 23.5 -125t64.5 -98t99 -65.5t130 -24.5 q106 0 204.5 53.5t164.5 141.5q6 8 16 9t19 -5q18 -14 4 -35q-72 -96 -179.5 -154.5t-228.5 -58.5q-80 0 -147.5 27.5t-116.5 76.5t-76 115t-27 143zM684 1366l8 47q4 20 25 21h4q25 -4 20 -29l-8 -47q-2 -10 -10 -16.5t-18 -2.5q-25 4 -21 27z" />
<glyph unicode="&#xc0;" horiz-adv-x="1617" d="M123 37l762 1382q10 16 26 13q20 4 27 -21l274 -1380q4 -27 -20 -31h-4q-23 0 -27 20l-71 365h-717l-205 -373q-10 -12 -23 -12q-10 0 -14 2q-23 14 -8 35zM401 436h678l-180 901zM791 1860q4 8 6 19t30 11q33 0 58 -37l127 -190q8 -12 8 -23q0 -14 -14 -6 q-16 6 -24.5 9.5t-25.5 21.5l-145 158q-10 10 -17.5 19t-2.5 18z" />
<glyph unicode="&#xc1;" horiz-adv-x="1617" d="M123 37l762 1382q10 16 26 13q20 4 27 -21l274 -1380q4 -27 -20 -31h-4q-23 0 -27 20l-71 365h-717l-205 -373q-10 -12 -23 -12q-10 0 -14 2q-23 14 -8 35zM401 436h678l-180 901zM782 1640q0 10 9 23l127 190q25 37 57 37q29 0 31 -11t6 -19t-3.5 -17.5t-17.5 -19.5 l-145 -158q-16 -18 -24.5 -21.5t-24.5 -9.5q-14 -8 -15 6z" />
<glyph unicode="&#xc2;" horiz-adv-x="1617" d="M123 37l762 1382q10 16 26 13q20 4 27 -21l274 -1380q4 -27 -20 -31h-4q-23 0 -27 20l-71 365h-717l-205 -373q-10 -12 -23 -12q-10 0 -14 2q-23 14 -8 35zM401 436h678l-180 901zM678 1642q2 10 16 25l187 180q18 16 32.5 26.5t32.5 10.5h17q18 0 28 -10t21 -27 l108 -180q8 -12 4 -25q-2 -8 -7 -6t-19 2q-16 0 -27.5 14.5t-19.5 24.5l-111 154l-174 -156q-10 -8 -26.5 -22.5t-32.5 -14.5q-12 0 -21.5 -2t-7.5 6z" />
<glyph unicode="&#xc3;" horiz-adv-x="1617" d="M123 37l762 1382q10 16 26 13q20 4 27 -21l274 -1380q4 -27 -20 -31h-4q-23 0 -27 20l-71 365h-717l-205 -373q-10 -12 -23 -12q-10 0 -14 2q-23 14 -8 35zM401 436h678l-180 901zM606 1645q0 4 3 14t5 14q8 25 25.5 46.5t39 39t46.5 27.5t45 10q29 0 63.5 -12 t70.5 -26.5t69 -27t59 -12.5q63 0 103 88q4 10 8 22.5t18 12.5q16 0 26.5 -9t10.5 -26q0 -12 -4 -24q-20 -61 -61 -100.5t-101 -39.5q-29 0 -62.5 12.5t-68.5 28t-69.5 27.5t-61.5 12q-63 0 -98 -80q-4 -10 -10.5 -17t-22.5 -7q-33 0 -33 27z" />
<glyph unicode="&#xc4;" horiz-adv-x="1617" d="M123 37l762 1382q10 16 26 13q20 4 27 -21l274 -1380q4 -27 -20 -31h-4q-23 0 -27 20l-71 365h-717l-205 -373q-10 -12 -23 -12q-10 0 -14 2q-23 14 -8 35zM401 436h678l-180 901zM680 1714q4 29 25.5 49.5t50.5 20.5t47 -20.5t14 -49.5t-25.5 -49t-50.5 -20t-47 20 t-14 49zM1053 1714q4 29 25.5 49.5t49.5 20.5q29 0 48.5 -20.5t15.5 -49.5t-26.5 -49t-51.5 -20t-47 20t-14 49z" />
<glyph unicode="&#xc5;" horiz-adv-x="1546" d="M170 37l727 1319q-51 14 -77.5 57t-16.5 100v3q14 74 71.5 116.5t122.5 42.5q66 0 108 -45t30 -114v-3q-10 -53 -48 -96t-94 -59l262 -1321q4 -10 -3 -20.5t-17 -14.5q-4 0 -5 -1t-3 -1q-14 0 -25 18l-72 367h-716l-203 -367q-4 -18 -25 -18q-2 0 -4 1t-6 1q-18 12 -6 35 zM444 438h676l-180 897zM852 1511q-6 -39 12.5 -70.5t55.5 -41.5q8 -2 14 -3t14 -1q18 0 35 6q41 10 68.5 42t33.5 68v2q8 45 -18.5 81t-77.5 36t-90 -35.5t-47 -81.5v-2z" />
<glyph unicode="&#xc6;" horiz-adv-x="2340" d="M72 15.5q-2 7.5 0 15.5t4 13t2 3q0 2 6 10.5t36 48t93 121.5t181 232.5t298 382t443 567.5q12 16 25.5 24.5t33.5 8.5h1018q20 0 33.5 -4t9.5 -25q-4 -20 -18.5 -24.5t-34.5 -4.5h-887l-111 -620h795q20 0 34.5 -6t10.5 -27q-4 -20 -19.5 -26.5t-35.5 -6.5h-795 l-113 -630h897q20 0 35 -4.5t10 -24.5q-4 -20 -19 -25.5t-36 -5.5h-905q-23 0 -35 15.5t-8 37.5l65 369h-641l-317 -405l-13.5 -13.5t-29.5 -5.5q-10 2 -12 9.5zM487 485h607l159 901h-65z" />
<glyph unicode="&#xc7;" horiz-adv-x="1511" d="M150 594q0 31 2 60.5t8 62.5q27 147 106.5 277t196.5 226.5t260 153t295 56.5q129 0 239.5 -42t192.5 -116q8 -8 9 -18.5t-7 -18.5q-6 -8 -16.5 -9t-20.5 7q-74 68 -175 105.5t-222 37.5q-141 0 -276.5 -52t-245 -143t-185 -214t-100.5 -260q-4 -29 -7 -56.5t-3 -56.5 q0 -117 42 -217.5t117.5 -173t181 -114.5t232.5 -42q121 0 236.5 38t216.5 108q10 6 20 4t17 -11q14 -23 -9 -36q-106 -72 -229 -113t-252 -41q-137 0 -250.5 45t-199.5 125q-84 82 -129 190.5t-45 237.5zM803 -242q0 12 10 31l158 231h88l-133 -270q-10 -18 -20.5 -29.5 t-33.5 -11.5q-25 0 -47 16.5t-22 32.5z" />
<glyph unicode="&#xc8;" horiz-adv-x="1372" d="M215 31l244 1382q4 25 28 21q0 2 2 2h760q27 0 27 -27t-27 -27h-743l-113 -639h645q27 0 27 -24q0 -27 -27 -27h-653l-113 -639h734q27 0 26 -26q0 -25 -26 -25h-760h-2h-2h-6q-10 2 -16.5 10t-4.5 19zM748 1860q4 8 6 19t30 11q33 0 58 -37l127 -190q8 -12 8 -23 q0 -14 -14 -6q-16 6 -24.5 9.5t-25.5 21.5l-145 158q-10 10 -17.5 19t-2.5 18z" />
<glyph unicode="&#xc9;" horiz-adv-x="1372" d="M215 31l244 1382q4 25 28 21q0 2 2 2h760q27 0 27 -27t-27 -27h-743l-113 -639h645q27 0 27 -24q0 -27 -27 -27h-653l-113 -639h734q27 0 26 -26q0 -25 -26 -25h-760h-2h-2h-6q-10 2 -16.5 10t-4.5 19zM911 1640q0 10 9 23l127 190q25 37 57 37q29 0 31 -11t6 -19 t-3.5 -17.5t-17.5 -19.5l-145 -158q-16 -18 -24.5 -21.5t-24.5 -9.5q-14 -8 -15 6z" />
<glyph unicode="&#xca;" horiz-adv-x="1372" d="M215 31l244 1382q4 25 28 21q0 2 2 2h760q27 0 27 -27t-27 -27h-743l-113 -639h645q27 0 27 -24q0 -27 -27 -27h-653l-113 -639h734q27 0 26 -26q0 -25 -26 -25h-760h-2h-2h-6q-10 2 -16.5 10t-4.5 19zM676 1642q2 10 16 25l187 180q18 16 32.5 26.5t32.5 10.5h17 q18 0 28 -10t21 -27l108 -180q8 -12 4 -25q-2 -8 -7 -6t-19 2q-16 0 -27.5 14.5t-19.5 24.5l-111 154l-174 -156q-10 -8 -26.5 -22.5t-32.5 -14.5q-12 0 -21.5 -2t-7.5 6z" />
<glyph unicode="&#xcb;" horiz-adv-x="1372" d="M215 31l244 1382q4 25 28 21q0 2 2 2h760q27 0 27 -27t-27 -27h-743l-113 -639h645q27 0 27 -24q0 -27 -27 -27h-653l-113 -639h734q27 0 26 -26q0 -25 -26 -25h-760h-2h-2h-6q-10 2 -16.5 10t-4.5 19zM664 1714q4 29 25.5 49.5t49.5 20.5q29 0 47.5 -20.5t14.5 -49.5 t-25.5 -49t-50.5 -20t-47 20t-14 49zM1036 1714q4 29 25.5 49.5t50.5 20.5t48.5 -20.5t15.5 -49.5t-27 -49t-51 -20q-29 0 -47.5 20t-14.5 49z" />
<glyph unicode="&#xcc;" horiz-adv-x="561" d="M33 29l243 1382q2 10 10.5 16.5t18.5 4.5q27 -4 23 -31l-244 -1381q-4 -23 -27 -22h-4q-25 6 -20 31zM190 1860q4 8 6.5 19t30.5 11q33 0 58 -37l127 -190q8 -12 8 -23q0 -14 -14 -6q-16 6 -24.5 9.5t-25.5 21.5l-145 158q-10 10 -17.5 19t-3.5 18z" />
<glyph unicode="&#xcd;" horiz-adv-x="561" d="M229 29l244 1382q2 10 10.5 16.5t18.5 4.5q27 -4 22 -31l-243 -1381q-4 -23 -27 -22h-4q-25 6 -21 31zM387 1640q0 10 8 23l127 190q25 37 58 37q29 0 30.5 -11t5.5 -19t-3 -17.5t-17 -19.5l-145 -158q-16 -18 -25 -21.5t-25 -9.5q-14 -8 -14 6z" />
<glyph unicode="&#xce;" horiz-adv-x="561" d="M162 29l244 1382q2 10 10 16.5t18 4.5q27 -4 23 -31l-244 -1381q-4 -23 -27 -22h-4q-25 6 -20 31zM209 1642q2 10 16 25l187 180q18 16 32.5 26.5t32.5 10.5h17q18 0 28 -10t21 -27l108 -180q8 -12 4 -25q-2 -8 -7 -6t-19 2q-16 0 -27.5 14.5t-19.5 24.5l-111 154 l-174 -156q-10 -8 -26.5 -22.5t-32.5 -14.5q-12 0 -21.5 -2t-7.5 6z" />
<glyph unicode="&#xcf;" horiz-adv-x="561" d="M43 29l244 1382q2 10 10 16.5t18 4.5q27 -4 23 -31l-244 -1381q-4 -23 -26 -22h-5q-25 6 -20 31zM51 1714q4 29 25.5 49.5t50.5 20.5t47.5 -20.5t13.5 -49.5q-4 -29 -25.5 -49t-49.5 -20q-29 0 -47.5 20t-14.5 49zM424 1714q4 29 25.5 49.5t50.5 20.5t48 -20.5t15 -49.5 t-26.5 -49t-51.5 -20t-47 20t-14 49z" />
<glyph unicode="&#xd0;" horiz-adv-x="1472" d="M109 776q0 -18 20 -18h467q18 0 18 18q0 23 -18 23h-467q-20 0 -20 -23zM217 25l242 1382q6 20 26 20q0 2 2 3h275q133 0 243.5 -46.5t192.5 -126.5q80 -80 125 -188t45 -235q0 -63 -12 -127q-27 -147 -104.5 -276.5t-191.5 -227t-254 -152.5t-288 -55h-274h-2h-4 q-10 2 -17.5 10t-3.5 19zM272 47h246q137 0 268.5 53.5t239 143.5t181 212t98.5 261q6 29 8 58.5t2 58.5q0 117 -40 216t-114 171.5t-175 113.5t-224 41h-254z" />
<glyph unicode="&#xd1;" horiz-adv-x="1617" d="M217 35l242 1374q0 2 2 4q0 12 12 23q10 4 20.5 2t14.5 -13l717 -1319l229 1303q6 25 31 21q10 -2 17 -10.5t3 -18.5l-241 -1374q-4 -23 -25 -23h-6q-10 2 -19 14q-2 2 -2 3.5t-2 3.5l-712 1310l-232 -1308q-4 -23 -24 -23h-4q-27 8 -21 31zM758 1645q0 4 3 14t5 14 q8 25 25.5 46.5t39 39t46 27.5t45.5 10q29 0 63.5 -12t70.5 -26.5t68.5 -27t59.5 -12.5q63 0 102 88q4 10 8 22.5t19 12.5q16 0 26.5 -9t10.5 -26q0 -12 -4 -24q-20 -61 -61.5 -100.5t-100.5 -39.5q-29 0 -63 12.5t-68.5 28t-69.5 27.5t-61 12q-64 0 -99 -80q-4 -10 -10 -17 t-22 -7q-33 0 -33 27z" />
<glyph unicode="&#xd2;" horiz-adv-x="1740" d="M150 588q0 63 12 131q27 147 101.5 277t183 227.5t240.5 153t271 55.5q125 0 229.5 -45.5t178.5 -124.5q76 -78 117 -185.5t41 -232.5q0 -33 -2 -66t-9 -67q-27 -147 -102.5 -276.5t-183 -226.5t-239.5 -153.5t-273 -56.5q-125 0 -228.5 45t-179.5 125 q-76 78 -116.5 185.5t-40.5 234.5zM201 588q0 -117 37.5 -215.5t105.5 -170t162 -112.5t209 -41q129 0 253 53.5t225 143.5t172.5 212t96.5 261q4 33 7.5 63.5t3.5 61.5q0 115 -38 213t-105.5 169.5t-163 112.5t-208.5 41h-2q-129 0 -251.5 -53t-224 -143t-172 -213 t-95.5 -260q-12 -66 -12 -123zM1092 1860q4 8 6 19t30 11q33 0 58 -37l127 -190q8 -12 8 -23q0 -14 -14 -6q-16 6 -24.5 9.5t-25.5 21.5l-145 158q-10 10 -17.5 19t-2.5 18z" />
<glyph unicode="&#xd3;" horiz-adv-x="1740" d="M150 588q0 63 12 131q27 147 101.5 277t183 227.5t240.5 153t271 55.5q125 0 229.5 -45.5t178.5 -124.5q76 -78 117 -185.5t41 -232.5q0 -33 -2 -66t-9 -67q-27 -147 -102.5 -276.5t-183 -226.5t-239.5 -153.5t-273 -56.5q-125 0 -228.5 45t-179.5 125 q-76 78 -116.5 185.5t-40.5 234.5zM201 588q0 -117 37.5 -215.5t105.5 -170t162 -112.5t209 -41q129 0 253 53.5t225 143.5t172.5 212t96.5 261q4 33 7.5 63.5t3.5 61.5q0 115 -38 213t-105.5 169.5t-163 112.5t-208.5 41h-2q-129 0 -251.5 -53t-224 -143t-172 -213 t-95.5 -260q-12 -66 -12 -123zM997 1640q0 10 9 23l127 190q25 37 57 37q29 0 31 -11t6 -19t-3 -17.5t-18 -19.5l-145 -158q-16 -18 -24.5 -21.5t-24.5 -9.5q-14 -8 -15 6z" />
<glyph unicode="&#xd4;" horiz-adv-x="1740" d="M150 588q0 63 12 131q27 147 101.5 277t183 227.5t240.5 153t271 55.5q125 0 229.5 -45.5t178.5 -124.5q76 -78 117 -185.5t41 -232.5q0 -33 -2 -66t-9 -67q-27 -147 -102.5 -276.5t-183 -226.5t-239.5 -153.5t-273 -56.5q-125 0 -228.5 45t-179.5 125 q-76 78 -116.5 185.5t-40.5 234.5zM201 588q0 -117 37.5 -215.5t105.5 -170t162 -112.5t209 -41q129 0 253 53.5t225 143.5t172.5 212t96.5 261q4 33 7.5 63.5t3.5 61.5q0 115 -38 213t-105.5 169.5t-163 112.5t-208.5 41h-2q-129 0 -251.5 -53t-224 -143t-172 -213 t-95.5 -260q-12 -66 -12 -123zM840 1642q2 10 16 25l186 180q18 16 33 26.5t33 10.5h16q18 0 28.5 -10t21.5 -27l108 -180q8 -12 4 -25q-2 -8 -7 -6t-19 2q-16 0 -27.5 14.5t-20.5 24.5l-110 154l-174 -156q-10 -8 -26.5 -22.5t-33.5 -14.5q-12 0 -21 -2t-7 6z" />
<glyph unicode="&#xd5;" horiz-adv-x="1740" d="M150 588q0 63 12 131q27 147 101.5 277t183 227.5t240.5 153t271 55.5q125 0 229.5 -45.5t178.5 -124.5q76 -78 117 -185.5t41 -232.5q0 -33 -2 -66t-9 -67q-27 -147 -102.5 -276.5t-183 -226.5t-239.5 -153.5t-273 -56.5q-125 0 -228.5 45t-179.5 125 q-76 78 -116.5 185.5t-40.5 234.5zM201 588q0 -117 37.5 -215.5t105.5 -170t162 -112.5t209 -41q129 0 253 53.5t225 143.5t172.5 212t96.5 261q4 33 7.5 63.5t3.5 61.5q0 115 -38 213t-105.5 169.5t-163 112.5t-208.5 41h-2q-129 0 -251.5 -53t-224 -143t-172 -213 t-95.5 -260q-12 -66 -12 -123zM760 1645q0 4 3 14t5 14q8 25 25.5 46.5t39 39t46 27.5t45.5 10q29 0 63.5 -12t70.5 -26.5t68.5 -27t59.5 -12.5q63 0 102 88q4 10 8 22.5t19 12.5q16 0 26.5 -9t10.5 -26q0 -12 -4 -24q-20 -61 -61.5 -100.5t-100.5 -39.5q-29 0 -62.5 12.5 t-68.5 28t-70 27.5t-61 12q-64 0 -99 -80q-4 -10 -10 -17t-22 -7q-33 0 -33 27z" />
<glyph unicode="&#xd6;" horiz-adv-x="1740" d="M150 588q0 63 12 131q27 147 101.5 277t183 227.5t240.5 153t271 55.5q125 0 229.5 -45.5t178.5 -124.5q76 -78 117 -185.5t41 -232.5q0 -33 -2 -66t-9 -67q-27 -147 -102.5 -276.5t-183 -226.5t-239.5 -153.5t-273 -56.5q-125 0 -228.5 45t-179.5 125 q-76 78 -116.5 185.5t-40.5 234.5zM201 588q0 -117 37.5 -215.5t105.5 -170t162 -112.5t209 -41q129 0 253 53.5t225 143.5t172.5 212t96.5 261q4 33 7.5 63.5t3.5 61.5q0 115 -38 213t-105.5 169.5t-163 112.5t-208.5 41h-2q-129 0 -251.5 -53t-224 -143t-172 -213 t-95.5 -260q-12 -66 -12 -123zM801 1714q4 29 25.5 49.5t50.5 20.5t47 -20.5t14 -49.5t-25.5 -49t-50.5 -20t-47 20t-14 49zM1174 1714q4 29 25.5 49.5t49.5 20.5q29 0 48.5 -20.5t15.5 -49.5t-26.5 -49t-51.5 -20t-47 20t-14 49z" />
<glyph unicode="&#xd7;" horiz-adv-x="1269" d="M205 340q0 20 16 37l346 342l-344 340q-18 18 -18 41t14 37t37 14t41 -18l340 -345l342 347q16 16 37 16q20 0 34.5 -14.5t14.5 -34.5t-16 -37l-347 -342l345 -340q18 -18 18 -41t-14.5 -37t-36.5 -14q-23 0 -41 18l-340 344l-342 -346q-16 -16 -37 -16q-20 0 -34.5 14 t-14.5 35z" />
<glyph unicode="&#xd8;" horiz-adv-x="1740" d="M150 588q0 63 12 131q27 147 101.5 277t183 227.5t240.5 153t271 55.5q125 0 229.5 -45.5t178.5 -124.5q76 -78 117 -185.5t41 -232.5q0 -33 -2 -66t-9 -67q-27 -147 -102.5 -276.5t-183 -226.5t-239.5 -153.5t-273 -56.5q-125 0 -228.5 45t-179.5 125 q-76 78 -116.5 185.5t-40.5 234.5zM201 588q0 -117 37.5 -215.5t105.5 -170t162 -112.5t209 -41q129 0 253 53.5t225 143.5t172.5 212t96.5 261q4 33 7.5 63.5t3.5 61.5q0 115 -38 213t-105.5 169.5t-163 112.5t-208.5 41h-2q-129 0 -251.5 -53t-224 -143t-172 -213 t-95.5 -260q-12 -66 -12 -123zM207 29q0 -6 8 -6q16 -6 27 6l1243 1284q6 8 5 19t-9 18q-8 8 -19.5 7t-17.5 -9l-1237 -1282q-18 -23 0 -37z" />
<glyph unicode="&#xd9;" horiz-adv-x="1556" d="M190 473q0 25 2.5 50.5t6.5 49.5l147 834q4 27 31 23q10 -4 16 -12.5t4 -18.5l-147 -834q-8 -41 -8 -92q0 -92 32.5 -170t89 -134t136.5 -89t176 -33q109 0 212 42t187 113.5t142.5 167t76.5 203.5l148 834q4 27 31 23q25 -6 20 -31l-147 -834q-20 -119 -83 -222 t-154 -180t-202.5 -122t-230.5 -45q-106 0 -195.5 36t-154.5 101q-66 66 -101 152t-35 188zM856 1860q4 8 6 19t31 11q33 0 57 -37l127 -190q8 -12 8 -23q0 -14 -14 -6q-16 6 -24.5 9.5t-24.5 21.5l-145 158q-10 10 -17.5 19t-3.5 18z" />
<glyph unicode="&#xda;" horiz-adv-x="1556" d="M190 473q0 25 2.5 50.5t6.5 49.5l147 834q4 27 31 23q10 -4 16 -12.5t4 -18.5l-147 -834q-8 -41 -8 -92q0 -92 32.5 -170t89 -134t136.5 -89t176 -33q109 0 212 42t187 113.5t142.5 167t76.5 203.5l148 834q4 27 31 23q25 -6 20 -31l-147 -834q-20 -119 -83 -222 t-154 -180t-202.5 -122t-230.5 -45q-106 0 -195.5 36t-154.5 101q-66 66 -101 152t-35 188zM797 1640q0 10 8 23l127 190q25 37 57 37q29 0 31 -11t6 -19t-3 -17.5t-17 -19.5l-146 -158q-16 -18 -24.5 -21.5t-24.5 -9.5q-14 -8 -14 6z" />
<glyph unicode="&#xdb;" horiz-adv-x="1556" d="M190 473q0 25 2.5 50.5t6.5 49.5l147 834q4 27 31 23q10 -4 16 -12.5t4 -18.5l-147 -834q-8 -41 -8 -92q0 -92 32.5 -170t89 -134t136.5 -89t176 -33q109 0 212 42t187 113.5t142.5 167t76.5 203.5l148 834q4 27 31 23q25 -6 20 -31l-147 -834q-20 -119 -83 -222 t-154 -180t-202.5 -122t-230.5 -45q-106 0 -195.5 36t-154.5 101q-66 66 -101 152t-35 188zM762 1642q2 10 16 25l187 180q18 16 32.5 26.5t32.5 10.5h17q18 0 28 -10t21 -27l108 -180q8 -12 4 -25q-2 -8 -7 -6t-19 2q-16 0 -27.5 14.5t-19.5 24.5l-111 154l-174 -156 q-10 -8 -26.5 -22.5t-32.5 -14.5q-12 0 -21.5 -2t-7.5 6z" />
<glyph unicode="&#xdc;" horiz-adv-x="1556" d="M190 473q0 25 2.5 50.5t6.5 49.5l147 834q4 27 31 23q10 -4 16 -12.5t4 -18.5l-147 -834q-8 -41 -8 -92q0 -92 32.5 -170t89 -134t136.5 -89t176 -33q109 0 212 42t187 113.5t142.5 167t76.5 203.5l148 834q4 27 31 23q25 -6 20 -31l-147 -834q-20 -119 -83 -222 t-154 -180t-202.5 -122t-230.5 -45q-106 0 -195.5 36t-154.5 101q-66 66 -101 152t-35 188zM723 1714q4 29 25.5 49.5t50.5 20.5t47 -20.5t14 -49.5t-25.5 -49t-50.5 -20t-47 20t-14 49zM1096 1714q4 29 25.5 49.5t49.5 20.5q29 0 48.5 -20.5t15.5 -49.5t-26.5 -49 t-51.5 -20t-47 20t-14 49z" />
<glyph unicode="&#xdd;" horiz-adv-x="1466" d="M116 1411q3 10 13 14q10 6 20.5 3t14.5 -13l368 -663l609 669q18 18 37 2q18 -18 2 -37l-627 -692h-2l-119 -678q-4 -20 -24 -20h-7q-10 2 -16 11t-4 20l119 675l-381 689q-6 10 -3 20zM653 1640q0 10 9 23l126 190q25 37 58 37q29 0 31 -11t6 -19t-3.5 -17.5 t-17.5 -19.5l-145 -158q-16 -18 -24.5 -21.5t-24.5 -9.5q-14 -8 -15 6z" />
<glyph unicode="&#xdf;" horiz-adv-x="1269" d="M197 45l172 983q18 106 66 195.5t118 154t159 100t193 35.5q92 0 163 -27.5t116 -75.5t62.5 -113.5t2.5 -141.5v-4q-12 -76 -51 -137.5t-93 -110.5t-117.5 -85t-127.5 -56q78 -14 147.5 -42t119 -73t73 -107.5t8.5 -144.5v-4q-16 -94 -68.5 -165.5t-129 -121t-176 -75 t-209.5 -29.5q-16 0 -27.5 13.5t-7.5 31.5t19.5 30.5t31.5 14.5q88 4 166 23.5t138.5 56.5t100 90t52.5 127l2 4q12 70 -9.5 123t-69.5 90t-116.5 60.5t-148.5 33.5q-49 6 -43 50q4 20 18 32.5t33 18.5q70 23 133.5 54.5t113.5 74.5t83.5 97t46.5 122v4q10 57 -4.5 107.5 t-48 85t-86 55t-119.5 20.5q-74 0 -142.5 -27.5t-123 -77.5t-93.5 -123t-55 -163l-172 -983q-4 -23 -20.5 -36t-38.5 -13q-23 0 -34 13.5t-7 35.5z" />
<glyph unicode="&#xe0;" horiz-adv-x="1175" d="M129 414q0 23 2 46t6 48q18 102 70.5 191t127.5 156t166 105.5t189 38.5q86 2 159 -29.5t126 -88.5q61 -63 88 -156l47 254q4 27 29 20q25 -4 20 -28l-84 -473l-82 -471q-4 -20 -24 -21h-4q-27 4 -21 29l41 237q-39 -59 -90 -108t-111.5 -84t-126 -55.5t-135.5 -20.5 q-86 0 -158.5 32t-123.5 89q-53 53 -82 128t-29 161zM180 414q0 -78 25.5 -143.5t71 -112.5t107.5 -74t138 -27q86 0 170 35t152.5 96.5t117 143.5t64.5 176q6 43 6 84q0 78 -24.5 143.5t-69.5 112.5t-108.5 73.5t-139.5 26.5h-2q-86 0 -169 -35.5t-150.5 -97t-116 -143.5 t-64.5 -174q-8 -39 -8 -84zM682 1450q4 8 6 19.5t31 11.5q33 0 57 -37l127 -191q8 -12 8 -22q0 -14 -14 -6q-16 6 -24.5 9t-24.5 21l-146 158q-10 10 -17 19.5t-3 17.5z" />
<glyph unicode="&#xe1;" horiz-adv-x="1175" d="M129 414q0 23 2 46t6 48q18 102 70.5 191t127.5 156t166 105.5t189 38.5q86 2 159 -29.5t126 -88.5q61 -63 88 -156l47 254q4 27 29 20q25 -4 20 -28l-84 -473l-82 -471q-4 -20 -24 -21h-4q-27 4 -21 29l41 237q-39 -59 -90 -108t-111.5 -84t-126 -55.5t-135.5 -20.5 q-86 0 -158.5 32t-123.5 89q-53 53 -82 128t-29 161zM180 414q0 -78 25.5 -143.5t71 -112.5t107.5 -74t138 -27q86 0 170 35t152.5 96.5t117 143.5t64.5 176q6 43 6 84q0 78 -24.5 143.5t-69.5 112.5t-108.5 73.5t-139.5 26.5h-2q-86 0 -169 -35.5t-150.5 -97t-116 -143.5 t-64.5 -174q-8 -39 -8 -84zM580 1231q0 10 8 22l127 191q25 37 57 37q29 0 31 -11.5t6 -19.5t-3 -17.5t-18 -19.5l-145 -158q-16 -18 -24.5 -21t-24.5 -9q-14 -8 -14 6z" />
<glyph unicode="&#xe2;" horiz-adv-x="1175" d="M129 414q0 23 2 46t6 48q18 102 70.5 191t127.5 156t166 105.5t189 38.5q86 2 159 -29.5t126 -88.5q61 -63 88 -156l47 254q4 27 29 20q25 -4 20 -28l-84 -473l-82 -471q-4 -20 -24 -21h-4q-27 4 -21 29l41 237q-39 -59 -90 -108t-111.5 -84t-126 -55.5t-135.5 -20.5 q-86 0 -158.5 32t-123.5 89q-53 53 -82 128t-29 161zM180 414q0 -78 25.5 -143.5t71 -112.5t107.5 -74t138 -27q86 0 170 35t152.5 96.5t117 143.5t64.5 176q6 43 6 84q0 78 -24.5 143.5t-69.5 112.5t-108.5 73.5t-139.5 26.5h-2q-86 0 -169 -35.5t-150.5 -97t-116 -143.5 t-64.5 -174q-8 -39 -8 -84zM578 1233q2 10 16 24l186 181q18 16 32.5 26.5t33.5 10.5h16q18 0 28.5 -10.5t20.5 -26.5l109 -181q8 -12 4 -24q-2 -8 -7 -6t-20 2q-16 0 -27.5 14t-19.5 25l-110 153l-174 -155q-10 -8 -26.5 -22.5t-33.5 -14.5q-12 0 -21.5 -2t-6.5 6z" />
<glyph unicode="&#xe3;" horiz-adv-x="1175" d="M129 414q0 23 2 46t6 48q18 102 70.5 191t127.5 156t166 105.5t189 38.5q86 2 159 -29.5t126 -88.5q61 -63 88 -156l47 254q4 27 29 20q25 -4 20 -28l-84 -473l-82 -471q-4 -20 -24 -21h-4q-27 4 -21 29l41 237q-39 -59 -90 -108t-111.5 -84t-126 -55.5t-135.5 -20.5 q-86 0 -158.5 32t-123.5 89q-53 53 -82 128t-29 161zM180 414q0 -78 25.5 -143.5t71 -112.5t107.5 -74t138 -27q86 0 170 35t152.5 96.5t117 143.5t64.5 176q6 43 6 84q0 78 -24.5 143.5t-69.5 112.5t-108.5 73.5t-139.5 26.5h-2q-86 0 -169 -35.5t-150.5 -97t-116 -143.5 t-64.5 -174q-8 -39 -8 -84zM514 1235q0 4 3 14.5t5 14.5q8 25 25.5 46t39 38.5t46 27.5t45.5 10q29 0 63.5 -12t70.5 -26.5t68.5 -26.5t59.5 -12q63 0 102 88q4 10 8.5 22.5t18.5 12.5q16 0 26.5 -9.5t10.5 -25.5q0 -12 -4 -25q-20 -61 -61.5 -100t-100.5 -39 q-29 0 -62.5 12t-68.5 27.5t-69.5 28t-61.5 12.5q-63 0 -98 -80q-4 -10 -10.5 -17.5t-22.5 -7.5q-33 0 -33 27z" />
<glyph unicode="&#xe4;" horiz-adv-x="1175" d="M129 414q0 23 2 46t6 48q18 102 70.5 191t127.5 156t166 105.5t189 38.5q86 2 159 -29.5t126 -88.5q61 -63 88 -156l47 254q4 27 29 20q25 -4 20 -28l-84 -473l-82 -471q-4 -20 -24 -21h-4q-27 4 -21 29l41 237q-39 -59 -90 -108t-111.5 -84t-126 -55.5t-135.5 -20.5 q-86 0 -158.5 32t-123.5 89q-53 53 -82 128t-29 161zM180 414q0 -78 25.5 -143.5t71 -112.5t107.5 -74t138 -27q86 0 170 35t152.5 96.5t117 143.5t64.5 176q6 43 6 84q0 78 -24.5 143.5t-69.5 112.5t-108.5 73.5t-139.5 26.5h-2q-86 0 -169 -35.5t-150.5 -97t-116 -143.5 t-64.5 -174q-8 -39 -8 -84zM555 1305q4 29 25.5 49t50.5 20t47 -20.5t14 -48.5q-4 -29 -25.5 -49.5t-50.5 -20.5t-47 20.5t-14 49.5zM928 1305q4 29 25.5 49t50.5 20t48 -20.5t15 -48.5q-4 -29 -26.5 -49.5t-51.5 -20.5t-47 20.5t-14 49.5z" />
<glyph unicode="&#xe5;" horiz-adv-x="1175" d="M104 414q0 23 2.5 46t6.5 48q18 102 70.5 191t127 156t165.5 105.5t190 38.5q86 2 158.5 -29.5t125.5 -88.5q61 -63 88 -156l47 254q4 27 29 20q25 -4 21 -28l-84 -473l-82 -471q-4 -20 -25 -21h-4q-27 4 -20 29l41 237q-39 -59 -90.5 -108t-112 -84t-125.5 -55.5 t-135 -20.5q-86 0 -159 32t-124 89q-53 53 -82 128t-29 161zM156 414q0 -78 25.5 -143.5t70.5 -112.5t107.5 -74t138.5 -27q86 0 170 35t152.5 96.5t116.5 143.5t64 176q6 43 7 84q0 78 -25 143.5t-70 112.5t-108.5 73.5t-138.5 26.5h-2q-86 0 -169 -35.5t-151 -97 t-116 -143.5t-64 -174q-8 -39 -8 -84zM686 1294v2q14 74 71.5 117t123.5 43t107.5 -45t29.5 -115v-2q-6 -33 -23.5 -62.5t-43 -52t-58.5 -36t-70 -13.5q-70 0 -108.5 48.5t-28.5 115.5zM735 1292q-8 -45 18.5 -80.5t77.5 -35.5t90.5 35.5t47.5 80.5v2q8 45 -18.5 81 t-78.5 36q-51 0 -90 -36t-47 -81v-2z" />
<glyph unicode="&#xe6;" horiz-adv-x="1953" d="M104 418q0 23 2.5 46t6.5 48q18 102 70.5 192.5t128 158t167.5 106.5t191 39q88 2 160.5 -30t125.5 -89q63 -66 91 -158l47 256q4 27 28 21q25 -4 21 -29l-49 -272q39 66 93 120t118.5 94t136 61.5t147.5 21.5q90 2 165 -30t128 -89q115 -115 115 -295v-27.5t-2 -27.5 q0 -2 -1 -4.5t-1 -4.5q-8 -18 -25 -18h-895q-2 -4 -2 -10q-4 -20 -6 -41t-2 -41q0 -78 25.5 -144.5t73.5 -114.5t113.5 -76t145.5 -28q115 0 220.5 55.5t181.5 149.5q14 18 37 4q18 -18 4 -37q-84 -102 -199 -162.5t-244 -62.5q-92 0 -166.5 31.5t-128.5 89.5 q-37 37 -63.5 84t-38.5 100l-49 -278q-4 -20 -25 -21h-4q-27 4 -20 29l41 239q-78 -121 -202 -194.5t-263 -75.5q-88 0 -161 32t-126 89q-53 55 -82 131t-29 162zM156 418q0 -78 25.5 -144.5t71.5 -114.5t108.5 -75t140.5 -27q88 0 172 35t152.5 97.5t117.5 145.5t66 177 q6 43 6 84q0 78 -25.5 144.5t-71 114.5t-110 74.5t-139.5 26.5h-2q-86 0 -170 -35.5t-153 -97t-117 -144.5t-64 -177q-8 -39 -8 -84zM1085 559h859q2 10 2 31q0 78 -26 144.5t-73 114.5t-112.5 75.5t-145.5 27.5q-84 0 -162.5 -29.5t-146.5 -83t-119 -126t-76 -154.5z" />
<glyph unicode="&#xe7;" horiz-adv-x="1169" d="M119 418q0 39 6 86q18 104 74.5 194t137.5 157t181 105.5t207 38.5q92 2 168 -27.5t135 -82.5q8 -6 9 -16.5t-7 -18.5t-18.5 -9t-18.5 7q-51 45 -118.5 70.5t-149.5 25.5q-96 0 -188.5 -35.5t-167 -97t-125.5 -144.5t-68 -177q-6 -37 -6 -76q0 -80 28.5 -147.5t79 -117 t122 -77t157.5 -27.5q82 0 161 25.5t146 72.5q10 6 20.5 4.5t16.5 -10.5q14 -23 -8 -37q-74 -51 -159 -79.5t-177 -28.5q-96 0 -176 31.5t-139 89.5q-59 57 -91 134t-32 167zM612 -242q0 12 11 31l157 231h88l-133 -270q-10 -18 -20 -29.5t-33 -11.5q-25 0 -47.5 16.5 t-22.5 32.5z" />
<glyph unicode="&#xe8;" horiz-adv-x="1196" d="M125 416q0 51 8 90q18 102 71.5 192t130.5 158t171 106.5t194 38.5q90 2 165 -29.5t128 -88.5q115 -115 115 -295v-27.5t-2 -28.5q0 -2 -1 -4t-1 -4q-8 -18 -25 -18h-893q-2 -4 -2 -10q-4 -18 -6 -39t-2 -41q0 -78 25.5 -144.5t74 -114.5t114 -76t145.5 -28 q113 0 218 55.5t181 149.5q14 18 37 4q18 -18 4 -37q-84 -102 -198.5 -162.5t-241.5 -62.5q-92 0 -167 31.5t-128 89.5q-55 55 -85 131t-30 164zM199 557h856q2 10 2 31q0 78 -25.5 144.5t-73 114.5t-113 75.5t-145.5 27.5q-82 0 -160.5 -29.5t-146 -83t-119 -126 t-75.5 -154.5zM672 1450q4 8 6 19.5t31 11.5q33 0 57 -37l127 -191q8 -12 8 -22q0 -14 -14 -6q-16 6 -24.5 9t-24.5 21l-146 158q-10 10 -17 19.5t-3 17.5z" />
<glyph unicode="&#xe9;" horiz-adv-x="1196" d="M125 416q0 51 8 90q18 102 71.5 192t130.5 158t171 106.5t194 38.5q90 2 165 -29.5t128 -88.5q115 -115 115 -295v-27.5t-2 -28.5q0 -2 -1 -4t-1 -4q-8 -18 -25 -18h-893q-2 -4 -2 -10q-4 -18 -6 -39t-2 -41q0 -78 25.5 -144.5t74 -114.5t114 -76t145.5 -28 q113 0 218 55.5t181 149.5q14 18 37 4q18 -18 4 -37q-84 -102 -198.5 -162.5t-241.5 -62.5q-92 0 -167 31.5t-128 89.5q-55 55 -85 131t-30 164zM199 557h856q2 10 2 31q0 78 -25.5 144.5t-73 114.5t-113 75.5t-145.5 27.5q-82 0 -160.5 -29.5t-146 -83t-119 -126 t-75.5 -154.5zM573 1231q0 10 9 22l127 191q25 37 57 37q29 0 31 -11.5t6 -19.5t-3 -17.5t-18 -19.5l-145 -158q-16 -18 -24.5 -21t-24.5 -9q-14 -8 -15 6z" />
<glyph unicode="&#xea;" horiz-adv-x="1196" d="M125 416q0 51 8 90q18 102 71.5 192t130.5 158t171 106.5t194 38.5q90 2 165 -29.5t128 -88.5q115 -115 115 -295v-27.5t-2 -28.5q0 -2 -1 -4t-1 -4q-8 -18 -25 -18h-893q-2 -4 -2 -10q-4 -18 -6 -39t-2 -41q0 -78 25.5 -144.5t74 -114.5t114 -76t145.5 -28 q113 0 218 55.5t181 149.5q14 18 37 4q18 -18 4 -37q-84 -102 -198.5 -162.5t-241.5 -62.5q-92 0 -167 31.5t-128 89.5q-55 55 -85 131t-30 164zM199 557h856q2 10 2 31q0 78 -25.5 144.5t-73 114.5t-113 75.5t-145.5 27.5q-82 0 -160.5 -29.5t-146 -83t-119 -126 t-75.5 -154.5zM530 1233q2 10 17 24l186 181q18 16 32.5 26.5t33.5 10.5h16q18 0 28.5 -10.5t20.5 -26.5l109 -181q8 -12 4 -24q-2 -8 -7 -6t-20 2q-16 0 -27.5 14t-19.5 25l-110 153l-175 -155q-10 -8 -26.5 -22.5t-32.5 -14.5q-12 0 -21.5 -2t-7.5 6z" />
<glyph unicode="&#xeb;" horiz-adv-x="1196" d="M125 416q0 51 8 90q18 102 71.5 192t130.5 158t171 106.5t194 38.5q90 2 165 -29.5t128 -88.5q115 -115 115 -295v-27.5t-2 -28.5q0 -2 -1 -4t-1 -4q-8 -18 -25 -18h-893q-2 -4 -2 -10q-4 -18 -6 -39t-2 -41q0 -78 25.5 -144.5t74 -114.5t114 -76t145.5 -28 q113 0 218 55.5t181 149.5q14 18 37 4q18 -18 4 -37q-84 -102 -198.5 -162.5t-241.5 -62.5q-92 0 -167 31.5t-128 89.5q-55 55 -85 131t-30 164zM199 557h856q2 10 2 31q0 78 -25.5 144.5t-73 114.5t-113 75.5t-145.5 27.5q-82 0 -160.5 -29.5t-146 -83t-119 -126 t-75.5 -154.5zM520 1305q4 29 25.5 49t50.5 20t47.5 -20.5t13.5 -48.5q-4 -29 -25.5 -49.5t-49.5 -20.5q-29 0 -47.5 20.5t-14.5 49.5zM893 1305q4 29 25.5 49t50.5 20t48 -20.5t15 -48.5q-4 -29 -26.5 -49.5t-51.5 -20.5t-47 20.5t-14 49.5z" />
<glyph unicode="&#xec;" horiz-adv-x="509" d="M6 31l166 950q4 10 12.5 16.5t18.5 1.5q27 -4 20 -28l-166 -951q-4 -20 -24 -20h-6q-10 4 -16.5 12t-4.5 19zM74 1450q4 8 6 19.5t31 11.5q33 0 57 -37l127 -191q8 -12 8 -22q0 -14 -14 -6q-16 6 -24.5 9t-24.5 21l-146 158q-10 10 -17 19.5t-3 17.5z" />
<glyph unicode="&#xed;" horiz-adv-x="509" d="M207 31l166 950q4 10 12 16.5t18 1.5q27 -4 21 -28l-166 -951q-4 -20 -25 -20h-6q-10 4 -16 12t-4 19zM291 1231q0 10 8 22l127 191q25 37 57 37q29 0 31 -11.5t6 -19.5t-3 -17.5t-17 -19.5l-146 -158q-16 -18 -24.5 -21t-24.5 -9q-14 -8 -14 6z" />
<glyph unicode="&#xee;" horiz-adv-x="509" d="M8 1233q2 10 17 24l186 181q18 16 32.5 26.5t32.5 10.5h17q18 0 28.5 -10.5t20.5 -26.5l109 -181q8 -12 4 -24q-2 -8 -7.5 -6t-19.5 2q-16 0 -27.5 14t-19.5 25l-111 153l-174 -155q-10 -8 -26.5 -22.5t-32.5 -14.5q-12 0 -21.5 -2t-7.5 6zM33 31l166 950q4 10 12 16.5 t18 1.5q27 -4 21 -28l-166 -951q-4 -20 -25 -20h-6q-10 4 -16 12t-4 19z" />
<glyph unicode="&#xef;" horiz-adv-x="509" d="M-37 1305q4 29 25.5 49t50.5 20t47 -20.5t14 -48.5q-4 -29 -25.5 -49.5t-49.5 -20.5q-29 0 -47.5 20.5t-14.5 49.5zM16 31l166 950q4 10 12.5 16.5t18.5 1.5q27 -4 20 -28l-165 -951q-4 -20 -25 -20h-6q-10 4 -16.5 12t-4.5 19zM336 1305q4 29 25.5 49t50.5 20t48 -20.5 t15 -48.5q-4 -29 -26.5 -49.5t-51.5 -20.5t-47 20.5t-14 49.5z" />
<glyph unicode="&#xf1;" d="M193 27l102 577v2l65 375q4 25 31 20q10 -2 16.5 -11t4.5 -19l-31 -168q68 88 169 143t218 55q72 0 135.5 -25.5t110.5 -70.5q45 -45 69.5 -107.5t24.5 -133.5q0 -31 -6 -68l-98 -580q-2 -10 -10.5 -15t-18.5 -5h-4q-25 4 -21 31l103 577q6 31 6 60q0 61 -21.5 113 t-60.5 91t-92.5 60.5t-116.5 21.5q-74 0 -144.5 -27.5t-129 -75.5t-98.5 -112.5t-52 -138.5l-100 -580q0 -4 -4 -8q0 -2 -2 -2q0 -4 -5 -4l-2 -2t-6 -2q-2 -2 -4 -2h-4h-4q-25 4 -20 31zM586 1235q0 4 3 14.5t5 14.5q8 25 25.5 46t39 38.5t46 27.5t45.5 10q29 0 63.5 -12 t70.5 -26.5t68.5 -26.5t59.5 -12q63 0 102 88q4 10 8 22.5t19 12.5q16 0 26.5 -9.5t10.5 -25.5q0 -12 -4 -25q-20 -61 -61.5 -100t-100.5 -39q-29 0 -63 12t-68.5 27.5t-69.5 28t-61 12.5q-64 0 -99 -80q-4 -10 -10 -17.5t-23 -7.5q-33 0 -32 27z" />
<glyph unicode="&#xf2;" horiz-adv-x="1310" d="M119 414q0 51 8 92q18 102 70.5 193.5t128 159t168 106.5t190.5 39q88 0 161 -32t126 -87t81.5 -131t28.5 -164q0 -51 -8 -92l-24 4l24 -4q-18 -102 -70.5 -192.5t-128 -158t-168 -107.5t-190.5 -40q-88 0 -160.5 31.5t-126.5 87.5q-53 57 -81.5 132t-28.5 163zM170 414 q0 -78 25.5 -144.5t70.5 -115t108.5 -76t141.5 -27.5q86 0 170 36t153.5 97.5t118 144.5t64.5 177q8 39 8 84q0 78 -25.5 144.5t-71.5 114.5t-109.5 75.5t-139.5 27.5h-2q-86 0 -170 -35.5t-152.5 -97t-116.5 -144.5t-65 -177q-8 -39 -8 -84zM715 1450q4 8 6 19.5t31 11.5 q33 0 57 -37l127 -191q8 -12 8 -22q0 -14 -14 -6q-16 6 -24.5 9t-24.5 21l-146 158q-10 10 -17 19.5t-3 17.5z" />
<glyph unicode="&#xf3;" horiz-adv-x="1310" d="M119 414q0 51 8 92q18 102 70.5 193.5t128 159t168 106.5t190.5 39q88 0 161 -32t126 -87t81.5 -131t28.5 -164q0 -51 -8 -92l-24 4l24 -4q-18 -102 -70.5 -192.5t-128 -158t-168 -107.5t-190.5 -40q-88 0 -160.5 31.5t-126.5 87.5q-53 57 -81.5 132t-28.5 163zM170 414 q0 -78 25.5 -144.5t70.5 -115t108.5 -76t141.5 -27.5q86 0 170 36t153.5 97.5t118 144.5t64.5 177q8 39 8 84q0 78 -25.5 144.5t-71.5 114.5t-109.5 75.5t-139.5 27.5h-2q-86 0 -170 -35.5t-152.5 -97t-116.5 -144.5t-65 -177q-8 -39 -8 -84zM711 1231q0 10 8 22l127 191 q25 37 57 37q29 0 31 -11.5t6 -19.5t-3 -17.5t-17 -19.5l-146 -158q-16 -18 -24.5 -21t-24.5 -9q-14 -8 -14 6z" />
<glyph unicode="&#xf4;" horiz-adv-x="1310" d="M119 414q0 51 8 92q18 102 70.5 193.5t128 159t168 106.5t190.5 39q88 0 161 -32t126 -87t81.5 -131t28.5 -164q0 -51 -8 -92l-24 4l24 -4q-18 -102 -70.5 -192.5t-128 -158t-168 -107.5t-190.5 -40q-88 0 -160.5 31.5t-126.5 87.5q-53 57 -81.5 132t-28.5 163zM170 414 q0 -78 25.5 -144.5t70.5 -115t108.5 -76t141.5 -27.5q86 0 170 36t153.5 97.5t118 144.5t64.5 177q8 39 8 84q0 78 -25.5 144.5t-71.5 114.5t-109.5 75.5t-139.5 27.5h-2q-86 0 -170 -35.5t-152.5 -97t-116.5 -144.5t-65 -177q-8 -39 -8 -84zM639 1233q2 10 16 24l187 181 q18 16 32.5 26.5t32.5 10.5h17q18 0 28.5 -10.5t20.5 -26.5l108 -181q8 -12 4 -24q-2 -8 -7 -6t-19 2q-16 0 -27.5 14t-19.5 25l-111 153l-174 -155q-10 -8 -26.5 -22.5t-32.5 -14.5q-12 0 -21.5 -2t-7.5 6z" />
<glyph unicode="&#xf5;" horiz-adv-x="1310" d="M119 414q0 51 8 92q18 102 70.5 193.5t128 159t168 106.5t190.5 39q88 0 161 -32t126 -87t81.5 -131t28.5 -164q0 -51 -8 -92l-24 4l24 -4q-18 -102 -70.5 -192.5t-128 -158t-168 -107.5t-190.5 -40q-88 0 -160.5 31.5t-126.5 87.5q-53 57 -81.5 132t-28.5 163zM170 414 q0 -78 25.5 -144.5t70.5 -115t108.5 -76t141.5 -27.5q86 0 170 36t153.5 97.5t118 144.5t64.5 177q8 39 8 84q0 78 -25.5 144.5t-71.5 114.5t-109.5 75.5t-139.5 27.5h-2q-86 0 -170 -35.5t-152.5 -97t-116.5 -144.5t-65 -177q-8 -39 -8 -84zM541 1235q0 4 3 14.5t5 14.5 q8 25 25.5 46t39 38.5t46 27.5t45.5 10q29 0 63.5 -12t70 -26.5t68.5 -26.5t60 -12q63 0 102 88q4 10 8 22.5t19 12.5q16 0 26.5 -9.5t10.5 -25.5q0 -12 -5 -25q-20 -61 -61 -100t-100 -39q-29 0 -63 12t-68.5 27.5t-69.5 28t-61 12.5q-64 0 -99 -80q-4 -10 -10 -17.5 t-23 -7.5q-33 0 -32 27z" />
<glyph unicode="&#xf6;" horiz-adv-x="1310" d="M119 414q0 51 8 92q18 102 70.5 193.5t128 159t168 106.5t190.5 39q88 0 161 -32t126 -87t81.5 -131t28.5 -164q0 -51 -8 -92l-24 4l24 -4q-18 -102 -70.5 -192.5t-128 -158t-168 -107.5t-190.5 -40q-88 0 -160.5 31.5t-126.5 87.5q-53 57 -81.5 132t-28.5 163zM170 414 q0 -78 25.5 -144.5t70.5 -115t108.5 -76t141.5 -27.5q86 0 170 36t153.5 97.5t118 144.5t64.5 177q8 39 8 84q0 78 -25.5 144.5t-71.5 114.5t-109.5 75.5t-139.5 27.5h-2q-86 0 -170 -35.5t-152.5 -97t-116.5 -144.5t-65 -177q-8 -39 -8 -84zM541 1305q4 29 25.5 49t49.5 20 q29 0 47.5 -20.5t14.5 -48.5q-4 -29 -25.5 -49.5t-50.5 -20.5t-47 20.5t-14 49.5zM913 1305q4 29 26 49t50 20q29 0 48.5 -20.5t15.5 -48.5q-4 -29 -26.5 -49.5t-51.5 -20.5t-47.5 20.5t-14.5 49.5z" />
<glyph unicode="&#xf7;" horiz-adv-x="1269" d="M139 721q-6 -20 3.5 -34.5t29.5 -14.5h909q20 0 40 14t26 35q8 20 -2 34.5t-31 14.5h-909q-20 0 -39 -14.5t-27 -34.5zM424 309l12 35q10 35 42 58.5t67 23.5t50 -23.5t5 -58.5l-12 -35q-12 -35 -44 -58.5t-67 -23.5t-50 23.5t-3 58.5zM688 1098l12 35q10 35 42 58t67 23 t50 -23.5t5 -57.5l-12 -35q-10 -35 -42 -58.5t-67 -23.5t-50 23.5t-5 58.5z" />
<glyph unicode="&#xf8;" horiz-adv-x="1280" d="M143 414q0 51 9 92q18 102 70 193.5t128 159t168 106.5t191 39q88 0 160.5 -32t125.5 -87t82 -131t29 -164q0 -51 -8 -92l-25 4l25 -4q-18 -102 -70.5 -192.5t-128.5 -158t-168 -107.5t-190 -40q-88 0 -161 31.5t-126 87.5q-53 57 -82 132t-29 163zM170 8q-18 18 2 39 l858 944q4 6 15.5 8t19.5 -8q8 -6 9 -16t-5 -19l-864 -946q-6 -14 -27 -6q-2 0 -4 2t-4 2zM195 414q0 -78 25.5 -144.5t70.5 -115t108.5 -76t141.5 -27.5q86 0 170 36t153.5 97.5t118 144.5t64.5 177q8 39 8 84q0 78 -25.5 144.5t-72 114.5t-110 75.5t-138.5 27.5h-2 q-86 0 -170 -35.5t-153 -97t-117 -144.5t-64 -177q-8 -39 -8 -84z" />
<glyph unicode="&#xf9;" d="M170 336q0 39 8 72l101 571q4 27 30 22q10 -4 16.5 -12t4.5 -18l-103 -572q-4 -16 -4 -31.5v-31.5q0 -61 20.5 -113.5t59.5 -90.5t92.5 -59.5t118.5 -21.5q72 0 141.5 27.5t126 76t96.5 114t52 139.5l102 571q2 10 10.5 17t18.5 5q27 -8 22 -30l-102 -572 q-14 -84 -58 -156.5t-107.5 -127t-141.5 -85t-160 -30.5q-154 0 -246 96q-47 47 -72.5 107.5t-25.5 132.5zM600 1450q4 8 6 19.5t31 11.5q33 0 57 -37l127 -191q8 -12 8 -22q0 -14 -14 -6q-16 6 -24.5 9t-24.5 21l-145 158q-10 10 -17.5 19.5t-3.5 17.5z" />
<glyph unicode="&#xfa;" d="M170 336q0 39 8 72l101 571q4 27 30 22q10 -4 16.5 -12t4.5 -18l-103 -572q-4 -16 -4 -31.5v-31.5q0 -61 20.5 -113.5t59.5 -90.5t92.5 -59.5t118.5 -21.5q72 0 141.5 27.5t126 76t96.5 114t52 139.5l102 571q2 10 10.5 17t18.5 5q27 -8 22 -30l-102 -572 q-14 -84 -58 -156.5t-107.5 -127t-141.5 -85t-160 -30.5q-154 0 -246 96q-47 47 -72.5 107.5t-25.5 132.5zM672 1231q0 10 8 22l127 191q25 37 57 37q29 0 31 -11.5t6 -19.5t-3 -17.5t-17 -19.5l-146 -158q-16 -18 -24.5 -21t-24.5 -9q-14 -8 -14 6z" />
<glyph unicode="&#xfb;" d="M170 336q0 39 8 72l101 571q4 27 30 22q10 -4 16.5 -12t4.5 -18l-103 -572q-4 -16 -4 -31.5v-31.5q0 -61 20.5 -113.5t59.5 -90.5t92.5 -59.5t118.5 -21.5q72 0 141.5 27.5t126 76t96.5 114t52 139.5l102 571q2 10 10.5 17t18.5 5q27 -8 22 -30l-102 -572 q-14 -84 -58 -156.5t-107.5 -127t-141.5 -85t-160 -30.5q-154 0 -246 96q-47 47 -72.5 107.5t-25.5 132.5zM526 1233q2 10 17 24l186 181q18 16 32.5 26.5t33.5 10.5h16q18 0 28.5 -10.5t20.5 -26.5l109 -181q8 -12 4 -24q-2 -8 -7 -6t-20 2q-16 0 -27.5 14t-19.5 25 l-111 153l-174 -155q-10 -8 -26.5 -22.5t-32.5 -14.5q-12 0 -21.5 -2t-7.5 6z" />
<glyph unicode="&#xfc;" d="M170 336q0 39 8 72l101 571q4 27 30 22q10 -4 16.5 -12t4.5 -18l-103 -572q-4 -16 -4 -31.5v-31.5q0 -61 20.5 -113.5t59.5 -90.5t92.5 -59.5t118.5 -21.5q72 0 141.5 27.5t126 76t96.5 114t52 139.5l102 571q2 10 10.5 17t18.5 5q27 -8 22 -30l-102 -572 q-14 -84 -58 -156.5t-107.5 -127t-141.5 -85t-160 -30.5q-154 0 -246 96q-47 47 -72.5 107.5t-25.5 132.5zM524 1305q4 29 25.5 49t50.5 20t47.5 -20.5t14.5 -48.5q-4 -29 -26 -49.5t-50 -20.5q-29 0 -47.5 20.5t-14.5 49.5zM897 1305q4 29 25.5 49t50.5 20t48 -20.5 t15 -48.5q-4 -29 -26.5 -49.5t-51.5 -20.5t-47 20.5t-14 49.5z" />
<glyph unicode="&#xfd;" horiz-adv-x="1204" d="M113 -332q4 10 14 12.5t20 -2.5q76 -43 177 -43q88 0 171 33t151.5 91.5t115.5 136t61 165.5l27 142q-66 -92 -167 -146.5t-216 -56.5q-76 0 -136.5 25.5t-107.5 72.5q-47 45 -72.5 106.5t-25.5 133.5q0 37 8 70l100 573q6 25 31 20q10 -2 16.5 -10t4.5 -18l-101 -574 q-6 -35 -6 -61q0 -61 20.5 -113.5t59.5 -90.5t91 -59.5t118 -21.5q74 0 143.5 28t126 76t96 112.5t52.5 138.5l55 305l47 268q6 24 29 20q10 -2 17 -10t3 -18l-100 -574l-62 -346q-18 -98 -69 -184t-125 -149.5t-166 -100.5t-190 -37q-55 0 -105.5 13.5t-95.5 35.5 q-20 14 -10 37zM588 1231q0 10 8 22l127 191q25 37 57 37q29 0 31 -11.5t6 -19.5t-3 -17.5t-17 -19.5l-146 -158q-16 -18 -24.5 -21t-24.5 -9q-14 -8 -14 6z" />
<glyph unicode="&#xff;" horiz-adv-x="1204" d="M113 -332q4 10 14 12.5t20 -2.5q76 -43 177 -43q88 0 171 33t151.5 91.5t115.5 136t61 165.5l27 142q-66 -92 -167 -146.5t-216 -56.5q-76 0 -136.5 25.5t-107.5 72.5q-47 45 -72.5 106.5t-25.5 133.5q0 37 8 70l100 573q6 25 31 20q10 -2 16.5 -10t4.5 -18l-101 -574 q-6 -35 -6 -61q0 -61 20.5 -113.5t59.5 -90.5t91 -59.5t118 -21.5q74 0 143.5 28t126 76t96 112.5t52.5 138.5l55 305l47 268q6 24 29 20q10 -2 17 -10t3 -18l-100 -574l-62 -346q-18 -98 -69 -184t-125 -149.5t-166 -100.5t-190 -37q-55 0 -105.5 13.5t-95.5 35.5 q-20 14 -10 37zM451 1305q4 29 25.5 49t49.5 20q29 0 47.5 -20.5t14.5 -48.5q-4 -29 -25.5 -49.5t-50.5 -20.5t-47 20.5t-14 49.5zM823 1305q4 29 25.5 49t50.5 20t48.5 -20.5t15.5 -48.5q-4 -29 -27 -49.5t-51 -20.5q-29 0 -47.5 20.5t-14.5 49.5z" />
<glyph unicode="&#x152;" horiz-adv-x="2537" d="M133 743q27 154 105.5 289t191.5 234.5t250 158t283 58.5q115 0 212 -37t170.5 -102.5t122 -155.5t66.5 -199l80 447q4 23 28 26h764q25 0 21 -26q-6 -25 -29 -25h-737l-113 -639h650q10 0 15 -7t3 -17q-4 -27 -29 -27h-649l-113 -641h738q25 0 20 -25q-4 -27 -31 -26 h-763q-23 0 -19 26l78 441q-55 -109 -136 -199t-179.5 -155.5t-208 -102.5t-224.5 -37q-145 0 -261.5 58.5t-193.5 158.5t-108 235.5t-4 288.5zM188 743q-25 -141 4 -266t99.5 -217t178.5 -146.5t241 -56.5q131 2 257 56.5t230.5 146.5t177 217t99.5 266q25 143 -5 268.5 t-101 218.5t-178.5 146.5t-238.5 53.5q-133 0 -259 -53.5t-229.5 -146.5t-177 -218.5t-98.5 -268.5z" />
<glyph unicode="&#x153;" horiz-adv-x="2160" d="M119 414q0 51 8 92q18 102 70.5 193.5t128 159t168 106.5t190.5 39q88 0 161 -32t126 -87q88 -94 106 -236q35 76 90.5 141.5t124 112.5t147.5 74t163 27q90 2 164.5 -30t127.5 -89q115 -115 115 -295v-27.5t-2 -27.5q0 -2 -1 -4.5t-1 -4.5q-8 -18 -25 -18h-895 q-2 -4 -2 -10q-4 -20 -6 -41t-2 -41q0 -78 25.5 -144.5t74 -114.5t114 -76t145.5 -28q115 0 220 55.5t181 149.5q14 18 37 4q18 -18 4 -37q-84 -102 -198.5 -162.5t-243.5 -62.5q-92 0 -167 31.5t-128 89.5q-94 92 -111 233q-35 -78 -89 -142.5t-121.5 -111.5t-144.5 -73.5 t-157 -26.5q-88 0 -160.5 31.5t-126.5 87.5q-53 57 -81.5 132t-28.5 163zM170 414q0 -78 25.5 -144.5t70.5 -115t108.5 -76t141.5 -27.5q86 0 170 36t153.5 97.5t118 144.5t64.5 177q8 39 8 84q0 78 -25.5 144.5t-71.5 114.5t-109.5 75.5t-139.5 27.5h-2q-86 0 -170 -35.5 t-152.5 -97t-116.5 -144.5t-65 -177q-8 -39 -8 -84zM1098 559h858q2 10 2 31q0 78 -25.5 144.5t-73 114.5t-112.5 75.5t-145 27.5q-84 0 -163 -29.5t-146.5 -83t-119 -126t-75.5 -154.5z" />
<glyph unicode="&#x178;" horiz-adv-x="1466" d="M116 1411q3 10 13 14q10 6 20.5 3t14.5 -13l368 -663l609 669q18 18 37 2q18 -18 2 -37l-627 -692h-2l-119 -678q-4 -20 -24 -20h-7q-10 2 -16 11t-4 20l119 675l-381 689q-6 10 -3 20zM492 1714q4 29 25.5 49.5t49.5 20.5q29 0 47.5 -20.5t14.5 -49.5t-25.5 -49 t-50.5 -20t-47 20t-14 49zM864 1714q4 29 25.5 49.5t50.5 20.5t48.5 -20.5t15.5 -49.5t-27 -49t-51 -20q-29 0 -47.5 20t-14.5 49z" />
<glyph unicode="&#x2c6;" horiz-adv-x="1024" d="M291 1233q2 10 16 24l187 181q18 16 32.5 26.5t32.5 10.5h16q18 0 28.5 -10.5t21.5 -26.5l108 -181q8 -12 4 -24q-2 -8 -7 -6t-19 2q-16 0 -27.5 14t-19.5 25l-111 153l-174 -155q-10 -8 -26.5 -22.5t-33.5 -14.5q-12 0 -21 -2t-7 6z" />
<glyph unicode="&#x2dc;" horiz-adv-x="1024" d="M215 1235q0 4 3 14.5t5 14.5q8 25 25.5 46t39 38.5t46 27.5t45.5 10q29 0 63.5 -12t70.5 -26.5t68.5 -26.5t59.5 -12q63 0 102 88q4 10 8.5 22.5t18.5 12.5q16 0 26.5 -9.5t10.5 -25.5q0 -12 -4 -25q-20 -61 -61.5 -100t-100.5 -39q-29 0 -62.5 12t-68.5 27.5t-69.5 28 t-61.5 12.5q-63 0 -98 -80q-4 -10 -10.5 -17.5t-22.5 -7.5q-33 0 -33 27z" />
<glyph unicode="&#x2000;" horiz-adv-x="945" />
<glyph unicode="&#x2001;" horiz-adv-x="1890" />
<glyph unicode="&#x2002;" horiz-adv-x="945" />
<glyph unicode="&#x2003;" horiz-adv-x="1890" />
<glyph unicode="&#x2004;" horiz-adv-x="630" />
<glyph unicode="&#x2005;" horiz-adv-x="472" />
<glyph unicode="&#x2006;" horiz-adv-x="315" />
<glyph unicode="&#x2007;" horiz-adv-x="315" />
<glyph unicode="&#x2008;" horiz-adv-x="236" />
<glyph unicode="&#x2009;" horiz-adv-x="378" />
<glyph unicode="&#x200a;" horiz-adv-x="105" />
<glyph unicode="&#x2010;" horiz-adv-x="835" d="M135 715q0 23 21 22h467q18 0 18 -22q0 -18 -18 -19h-467q-20 0 -21 19z" />
<glyph unicode="&#x2011;" horiz-adv-x="835" d="M135 715q0 23 21 22h467q18 0 18 -22q0 -18 -18 -19h-467q-20 0 -21 19z" />
<glyph unicode="&#x2012;" horiz-adv-x="835" d="M135 715q0 23 21 22h467q18 0 18 -22q0 -18 -18 -19h-467q-20 0 -21 19z" />
<glyph unicode="&#x2013;" horiz-adv-x="1353" d="M135 715q0 23 42 22h946q36 0 36 -22q0 -18 -36 -19h-946q-40 0 -42 19z" />
<glyph unicode="&#x2014;" horiz-adv-x="2377" d="M135 715q0 23 85 22h1890q73 0 73 -22q0 -18 -73 -19h-1890q-81 0 -85 19z" />
<glyph unicode="&#x2018;" horiz-adv-x="471" d="M158 1370v2v6v6v7q0 2 2 4q4 16 17 26.5t30 10.5q23 0 38 -15.5t15 -38.5q0 -20 -15.5 -34.5t-37.5 -14.5h-12q6 -14 16 -25.5t33 -15.5q16 -8 10 -18q0 -12 -12 -13h-6q-27 6 -42.5 20.5t-23.5 31t-10 33t-2 28.5z" />
<glyph unicode="&#x2019;" horiz-adv-x="471" d="M121 1380q0 23 15.5 38.5t37.5 15.5q16 0 29.5 -10.5t17.5 -26.5q0 -4 2 -4v-21q0 -12 -2 -28.5t-10 -33t-23.5 -30.5t-42.5 -20h-6q-12 0 -12 12q-6 10 10 18q37 8 47 41h-10q-23 0 -38 14.5t-15 34.5z" />
<glyph unicode="&#x201a;" horiz-adv-x="471" />
<glyph unicode="&#x201c;" horiz-adv-x="839" d="M166 1112l14 51q20 86 46 135.5t61 77.5q35 29 70.5 47.5t50.5 18.5q10 0 19 -7.5t5 -23.5q-2 -8 -8 -15t-14 -12q-66 -31 -95.5 -67.5t-40.5 -89.5q23 -6 35.5 -23.5t3.5 -48.5l-12 -43q-6 -29 -29.5 -48.5t-52.5 -19.5t-44 19.5t-9 48.5zM535 1112l14 51 q20 86 46 135.5t60 77.5q35 29 71 47.5t50 18.5q10 0 19.5 -7.5t5.5 -23.5q-2 -8 -8.5 -15t-14.5 -12q-66 -31 -95.5 -67.5t-39.5 -89.5q23 -6 35 -23.5t4 -48.5l-12 -43q-6 -29 -30 -48.5t-52 -19.5q-29 0 -44.5 19.5t-8.5 48.5z" />
<glyph unicode="&#x201d;" horiz-adv-x="839" d="M125 1075q2 8 8 15.5t14 11.5q66 31 95.5 67.5t40.5 90.5q-23 6 -35 23t-4 48l12 43q6 29 29.5 48.5t52.5 19.5t44 -19.5t9 -48.5l-14 -51q-20 -86 -46 -135t-61 -78t-70.5 -47.5t-49.5 -18.5q-10 0 -19.5 7.5t-5.5 23.5zM494 1075q2 8 8 15.5t14 11.5q66 31 95.5 67.5 t39.5 90.5q-23 6 -35 23t-4 48l13 43q6 29 29.5 48.5t52.5 19.5t44 -19.5t9 -48.5l-15 -51q-20 -86 -45.5 -135t-60.5 -78t-71 -47.5t-50 -18.5q-10 0 -19 7.5t-5 23.5z" />
<glyph unicode="&#x201e;" horiz-adv-x="839" d="M115 -184q6 18 24 26q63 31 95 68t42 90q-23 6 -35 23.5t-1 48.5l10 43q8 29 32.5 48t53.5 19t43 -19.5t6 -47.5l-12 -52q-23 -86 -49.5 -135t-61.5 -78t-72.5 -47t-52.5 -18q-10 0 -18 7.5t-4 23.5zM483 -184q6 18 25 26q63 31 95 68t42 90q-23 6 -35 23.5t-2 48.5 l10 43q8 29 33 48t54 19t43 -19.5t6 -47.5l-13 -52q-23 -86 -49 -135t-61 -78t-73 -47t-52 -18q-10 0 -18.5 7.5t-4.5 23.5z" />
<glyph unicode="&#x2026;" horiz-adv-x="1392" d="M168 57q0 23 15.5 37.5t37.5 14.5q20 0 34.5 -14.5t14.5 -37.5q0 -20 -14 -35.5t-35 -15.5q-23 0 -38 15.5t-15 35.5zM487 57q0 23 15.5 37.5t38.5 14.5q20 0 34.5 -14.5t14.5 -37.5q0 -20 -14.5 -35.5t-34.5 -15.5q-23 0 -38.5 15.5t-15.5 35.5zM807 57q0 23 15.5 37.5 t37.5 14.5q20 0 34.5 -14.5t14.5 -37.5q0 -20 -14 -35.5t-35 -15.5q-23 0 -38 15.5t-15 35.5z" />
<glyph unicode="&#x202f;" horiz-adv-x="378" />
<glyph unicode="&#x2039;" horiz-adv-x="636" d="M115 514q6 18 28 45l346 367q4 6 14.5 8t19.5 0t16.5 -7.5t7.5 -13.5q-2 -10 -3 -16t-12 -16l-354 -369l225 -365q10 -16 8.5 -38.5t-28.5 -22.5q-29 0 -39 18l-217 365q-14 27 -12 45z" />
<glyph unicode="&#x203a;" horiz-adv-x="636" d="M139 109q2 10 3 16t12 16l354 369l-225 364q-10 16 -8.5 39t28.5 23q29 0 39 -18l217 -365q14 -27 12 -45q-6 -18 -28 -45l-346 -367q-4 -6 -14.5 -8t-19.5 0t-16.5 6.5t-7.5 14.5z" />
<glyph unicode="&#x205f;" horiz-adv-x="472" />
<glyph unicode="&#x2122;" horiz-adv-x="1413" d="M45 1417q0 12 10 13h426q10 0 11 -13q0 -10 -11 -10h-205l-100 -580q-4 -8 -12 -8q-10 0 -10 12l100 576h-199q-10 0 -10 10zM547 834l104 587q4 8 13 9h2q4 0 8 -7l176 -323l291 325q4 4 10 5h2q10 0 10 -13l-104 -588q-4 -10 -10 -10h-5q-8 2 -8 15l99 552l-277 -309 q-4 -4 -8 -4h-2h-2q-8 0 -8 6l-168 310l-101 -560q-4 -10 -10 -10h-2q-10 4 -10 15z" />
<glyph unicode="&#x25fc;" horiz-adv-x="1003" d="M0 0v1004h1004v-1004h-1004z" />
</font>
</defs>
</svg>
