<?xml version="1.0" standalone="no"?>
<!DOCTYPE svg PUBLIC "-//W3C//DTD SVG 1.1//EN" "http://www.w3.org/Graphics/SVG/1.1/DTD/svg11.dtd" >
<svg xmlns="http://www.w3.org/2000/svg">
<metadata></metadata>
<defs>
<font id="quicksandbook_oblique" horiz-adv-x="1255" >
<font-face units-per-em="2048" ascent="1638" descent="-410" />
<missing-glyph horiz-adv-x="614" />
<glyph horiz-adv-x="2048" />
<glyph horiz-adv-x="2048" />
<glyph unicode="&#xd;" horiz-adv-x="614" />
<glyph unicode=" "  horiz-adv-x="614" />
<glyph unicode="&#x09;" horiz-adv-x="614" />
<glyph unicode="&#xa0;" horiz-adv-x="614" />
<glyph unicode="!" horiz-adv-x="516" d="M197 55l8 47q4 20 20.5 32.5t36.5 8.5t32.5 -20.5t8.5 -38.5l-8 -47q-4 -18 -18.5 -29.5t-30.5 -11.5h-8q-23 4 -34 20.5t-7 38.5zM250 360l182 1029q4 20 20.5 32.5t36.5 8.5t33 -21.5t8 -38.5l-182 -1028q-4 -18 -17.5 -29.5t-31.5 -11.5h-8q-23 4 -34 20.5t-7 38.5z " />
<glyph unicode="&#x22;" horiz-adv-x="839" d="M143 944l62 440q8 53 57 54h39q33 0 33 -35q0 -10 -3 -22.5t-7 -26.5l-117 -412q-12 -37 -35 -37q-14 0 -23.5 8.5t-5.5 30.5zM512 944l61 440q8 53 58 54h39q33 0 32 -35q0 -10 -3 -22.5t-7 -26.5l-117 -412q-12 -37 -34 -37q-14 0 -23.5 8.5t-5.5 30.5z" />
<glyph unicode="#" horiz-adv-x="1433" d="M96 430q4 20 20.5 34.5t37.5 14.5h223l166 484h-226q-20 0 -32.5 13t-8.5 34q4 20 20.5 34.5t37.5 14.5h241l113 338q14 45 60 45q27 0 33.5 -18.5t0.5 -41.5l-108 -323h424l112 338q14 45 60 45q27 0 34 -18.5t1 -41.5l-109 -323h205q20 0 32.5 -13.5t8.5 -33.5 t-20.5 -34.5t-37.5 -14.5h-221l-166 -484h224q20 0 32.5 -13t8.5 -34q-4 -20 -20.5 -34.5t-37.5 -14.5h-239l-117 -346q-14 -45 -60 -45q-27 0 -33.5 18.5t-0.5 40.5l112 332h-424l-116 -346q-14 -45 -60 -45q-27 0 -34 18.5t-1 40.5l113 332h-207q-20 0 -32.5 13.5 t-8.5 33.5zM475 479h424l166 484h-424z" />
<glyph unicode="$" horiz-adv-x="1294" d="M129 244q4 20 23.5 35.5t40.5 15.5q14 0 21 -5t11 -9q66 -80 151 -127.5t202 -59.5l149 584q-219 51 -299 141t-39 244q18 78 67.5 144.5t119 115.5t155.5 79t180 32l19 77q6 20 24.5 35t38.5 15t30.5 -14.5t4.5 -35.5l-18 -81q111 -10 185.5 -46t141.5 -98 q10 -10 15.5 -20.5t1.5 -26.5q-4 -23 -23.5 -37t-42.5 -14q-20 0 -33 14q-59 59 -126.5 91t-147.5 42l-145 -573q223 -49 304 -140.5t44 -242.5q-20 -82 -70.5 -149.5t-121 -118t-159 -80t-184.5 -31.5l-39 -160q-6 -20 -24.5 -34.5t-38.5 -14.5t-30.5 14.5t-4.5 34.5 l39 162q-131 10 -230.5 59.5t-181.5 139.5q-16 18 -10 43zM485.5 976q3.5 -42 31.5 -78t85 -63.5t152 -52.5l139 559q-76 -2 -142.5 -23.5t-118.5 -58t-87 -85t-49 -103.5q-14 -53 -10.5 -95zM668 92q76 2 144.5 23.5t122.5 58.5t91 87.5t51 109.5q12 53 7 96t-34.5 78 t-87 62.5t-151.5 49.5z" />
<glyph unicode="%" horiz-adv-x="1687" d="M144.5 960.5q-11.5 65.5 0.5 137.5l2 4q12 72 46 138.5t85.5 116.5t115 80.5t134.5 30.5q70 0 123.5 -29.5t85 -80.5t43 -116.5t-1.5 -135.5v-4q-12 -72 -47 -138.5t-86 -117.5t-114.5 -81t-135.5 -30t-124 30t-83.5 80t-43 115.5zM147 53q2 14 15 27l1235 1358 q23 23 43 22q18 0 30.5 -12t8.5 -31q-4 -16 -15 -26l-1237 -1358q-18 -23 -41 -23q-18 0 -30.5 12.5t-8.5 30.5zM251 989.5q7 -51.5 29.5 -88.5t57.5 -57.5t78 -20.5q45 0 87 21.5t75.5 58.5t57 87t34.5 108l2 4q10 59 2 110.5t-30.5 88t-57.5 58t-78 21.5q-45 0 -87 -21.5 t-76 -59t-57.5 -88t-33.5 -105.5v-4q-10 -61 -3 -112.5zM847 227.5q-11 65.5 1 137.5v4q12 72 47 138t86 116.5t114.5 81t135.5 30.5q70 0 123 -29.5t84.5 -81t43 -117t-0.5 -134.5l-2 -4q-12 -72 -46 -138.5t-85.5 -118t-114.5 -81t-135 -29.5t-124 29.5t-84 80t-43 116z M951 256.5q7 -51.5 30 -88.5t57.5 -57.5t77.5 -20.5q45 0 87 21.5t76 58.5t58.5 87t34.5 108v4q10 59 3 110t-29.5 88t-57.5 58.5t-78 21.5q-45 0 -87 -21.5t-75.5 -59.5t-57 -88t-34.5 -105l-2 -4q-10 -61 -3 -112.5z" />
<glyph unicode="&#x26;" horiz-adv-x="1425" d="M100 393q0 39 6 82q23 123 96.5 222.5t178.5 160.5q-55 78 -55 176q0 31 6 60q12 70 49 131t90 107t118.5 73t137.5 27q131 0 215 -84q41 -41 62.5 -95.5t21.5 -115.5q0 -29 -6 -60q-4 -20 -20.5 -32.5t-36.5 -8.5q-23 4 -34 20.5t-7 37.5q2 12 3 22t1 21 q-2 86 -54.5 139t-144.5 55q-51 0 -100 -19.5t-90 -55t-70 -82t-37 -97.5q-4 -10 -4 -21.5v-21.5q0 -98 68 -149q16 -14 18 -35t-10 -37l-4 -2l-2 -2l-4 -4q-4 -2 -5.5 -3t-5.5 -3q-104 -47 -180 -139.5t-94 -202.5q-6 -31 -6 -64q0 -63 22.5 -117.5t61.5 -93.5t94 -61.5 t123 -22.5q76 0 150.5 30t135 81t102.5 119.5t54 146.5q6 33 6 66v12q-14 2 -26.5 2h-24.5q-121 0 -181.5 -27.5t-88.5 -62.5q-29 -33 -37 -68t-8 -51q0 -8 2 -10v-2q2 -20 -10.5 -35.5t-32.5 -19.5h-8q-18 0 -32 12t-18 31v8t-2 16q2 29 12.5 80t55.5 104t129 89t219 36 q16 0 33.5 -1t36.5 -1q2 -2 10 -2q27 0 52.5 8.5t43.5 24.5t30.5 41t12.5 70v14q-2 23 12.5 37t34.5 16q23 2 37.5 -12t16.5 -35v-20q0 -63 -21.5 -111.5t-58.5 -77.5q-37 -31 -88 -45v-20q0 -47 -9 -82q-16 -96 -66 -180t-124 -146.5t-164 -98.5t-186 -36q-86 0 -161 29.5 t-128 83.5q-53 53 -83 125.5t-30 156.5z" />
<glyph unicode="'" horiz-adv-x="471" d="M143 1073q4 16 23 27q63 31 93 67.5t38 89.5q-23 6 -35 23.5t-6 48.5l8 43q8 29 31.5 48.5t52.5 19.5t44.5 -19.5t6.5 -48.5l-10 -51q-18 -86 -41.5 -135t-56.5 -78q-35 -29 -72 -47.5t-51 -18.5q-10 0 -19.5 7.5t-5.5 23.5z" />
<glyph unicode="(" horiz-adv-x="880" d="M158.5 318.5q3.5 144.5 31.5 306.5q29 162 77 305t120 258q72 113 173.5 184.5t227.5 71.5q23 0 37.5 -17.5t10.5 -40.5t-24.5 -40t-43.5 -17q-86 -2 -154.5 -48t-132.5 -142q-59 -94 -104 -227.5t-74 -286.5q-27 -154 -29 -287t27 -227q29 -96 80 -143.5t139 -47.5 q23 0 37 -17.5t10 -39.5q-4 -25 -24.5 -41.5t-42.5 -16.5h-4q-123 0 -200 71.5t-108 184.5q-33 113 -29.5 257.5z" />
<glyph unicode=")" horiz-adv-x="880" d="M129 -137q4 23 24.5 40t43.5 17q86 2 154.5 48t131.5 143q59 94 104.5 227t74.5 287q27 154 28.5 286.5t-26.5 227.5q-29 96 -80.5 143t-139.5 47q-23 0 -37 17.5t-10 39.5q4 25 24.5 41.5t43.5 16.5h4q123 0 199.5 -71.5t107.5 -184.5q33 -113 30 -257.5t-32 -305.5 q-29 -162 -77 -305.5t-119 -258.5q-72 -113 -173.5 -184.5t-228.5 -71.5q-23 0 -37 17.5t-10 40.5z" />
<glyph unicode="*" horiz-adv-x="880" d="M160 991q4 14 14 24.5t21 14.5l229 100l-193 101q-29 14 -22 39q8 39 49 43q10 0 15.5 -3t15.5 -10l164 -126l22 223q2 18 16.5 31.5t32.5 13.5t27.5 -13.5t5.5 -31.5l-55 -223l209 126q18 12 34 13q16 0 26.5 -13.5t6.5 -29.5t-14 -25.5t-21 -13.5l-229 -101l193 -100 q10 -4 18 -13t4 -26q-4 -16 -18.5 -29.5t-30.5 -13.5q-10 0 -15.5 3t-15.5 10l-164 126l-22 -223q-2 -18 -16.5 -31.5t-32.5 -13.5t-27.5 13.5t-5.5 31.5l55 223l-209 -126q-18 -12 -34 -13q-16 0 -26.5 13.5t-6.5 29.5z" />
<glyph unicode="+" horiz-adv-x="1269" d="M131 713q0 29 19.5 48t48.5 19h379l67 379q4 29 26.5 44.5t51.5 8.5q27 -4 42 -26.5t11 -48.5l-63 -357h356q29 0 47.5 -19.5t18.5 -47.5q0 -29 -18.5 -48.5t-47.5 -19.5h-379l-67 -379q-4 -25 -22.5 -40t-43.5 -15h-12q-27 6 -42.5 27.5t-10.5 50.5l61 356h-354 q-29 0 -48.5 19.5t-19.5 48.5z" />
<glyph unicode="," horiz-adv-x="471" d="M115 -182q4 16 22 26q63 31 93 68t38 90q-23 6 -35 23.5t-6 48.5l9 43q8 29 31.5 48t51.5 19q29 0 44.5 -19.5t7.5 -47.5l-11 -51q-18 -86 -41.5 -135.5t-56.5 -77.5q-35 -29 -71.5 -47.5t-51.5 -18.5q-10 0 -19 7.5t-5 23.5z" />
<glyph unicode="-" horiz-adv-x="835" d="M135 713q0 37 39 37h436q16 0 27.5 -10.5t11.5 -26.5q0 -18 -11 -29.5t-28 -11.5h-436q-39 0 -39 41z" />
<glyph unicode="." horiz-adv-x="471" d="M180 119q10 49 47 83t88 34q53 0 80 -34t17 -83q-10 -51 -46 -85t-90 -34q-51 0 -78.5 34t-17.5 85z" />
<glyph unicode="/" horiz-adv-x="1024" d="M-2 70l559 1327q10 18 27.5 26.5t38.5 -0.5q20 -8 28 -26.5t-2 -38.5l-559 -1327q-12 -31 -45 -31q-14 0 -20 2q-18 10 -26.5 28.5t-0.5 39.5z" />
<glyph unicode="0" horiz-adv-x="1454" d="M133 547q0 43 4 87t13 91q27 147 85 273t140 223q82 96 180 154.5t207 58.5q92 0 167 -44t126 -118q51 -76 76.5 -173.5t25.5 -211.5q0 -43 -4 -87t-12 -91l-49 8l49 -8q-25 -145 -84.5 -271.5t-141.5 -224.5q-82 -96 -180 -154.5t-207 -58.5h-2q-92 0 -165.5 45 t-124.5 119q-49 74 -76 171t-27 212zM233 547q0 -102 23 -185t63 -143q82 -119 209 -119q78 0 159 46.5t153 132.5t125.5 200.5t76.5 245.5q8 43 11.5 83t3.5 79q0 102 -22.5 185t-63.5 142q-82 119 -209 119q-78 0 -159 -45t-152 -131q-72 -86 -126.5 -200.5t-76.5 -247.5 q-8 -41 -11.5 -82t-3.5 -80z" />
<glyph unicode="1" horiz-adv-x="686" d="M70 1231.5q6 19.5 24 30.5l309 165v3q4 0 7 2h4l4 2h6h4h4h2q2 0 4 -2h4l4 -2t5 -3l4 -2l4 -4l4 -4q2 -2 4 -2q0 -4 2 -4q0 -2 2 -4v-2q2 -2 2 -4t1 -2t1 -2v-4v-7q2 -2 0 -4v-6l-235 -1335q-4 -16 -17.5 -28.5t-32.5 -12.5q-4 0 -8 2q-20 4 -32.5 20.5t-8.5 36.5 l217 1231l-217 -116q-10 -6 -22 -7q-29 0 -45 27q-10 18 -4 37.5z" />
<glyph unicode="2" horiz-adv-x="1208" d="M97 59.5q3 20.5 20 32.5l774 604q88 70 134 162t46 182q0 100 -55 179q-43 59 -106.5 87.5t-139.5 28.5q-66 0 -135.5 -23.5t-134.5 -72.5l-80 -65q-16 -12 -38 -9.5t-34 19.5q-12 16 -10 36.5t18 32.5l82 64q78 59 162 89t170 30q96 0 182 -40t144 -118q39 -53 57 -114 t18 -124q-2 -117 -58 -228.5t-161 -193.5l-659 -516h659q23 0 37.5 -14t14.5 -35q0 -23 -14.5 -37t-37.5 -14h-798h-4h-3q-27 0 -41 21q-12 16 -9 36.5z" />
<glyph unicode="3" horiz-adv-x="1249" d="M154 178q4 21 20 37q18 16 40 16t34 -16q47 -55 111.5 -83t138.5 -28t149.5 28t143.5 83q66 57 106.5 128t52.5 144q12 74 -2 144.5t-61 126.5q-47 57 -112.5 84.5t-139.5 27.5q-23 0 -37 21h-2q-12 16 -8 36.5t20 37.5l422 366h-549q-23 0 -35 14.5t-8 36.5 q4 23 21.5 37.5t40.5 14.5h669q23 0 34 -14.5t7 -37.5q0 -10 -8 -22t-14 -17l-438 -380q66 -14 123 -46t98 -86q59 -72 78.5 -160.5t3.5 -183.5q-16 -94 -66.5 -183t-136.5 -161t-181.5 -107.5t-187.5 -35.5h-2q-92 0 -175 36t-142 107q-12 14 -8 35z" />
<glyph unicode="4" horiz-adv-x="1359" d="M100.5 347q-0.5 20 16.5 36l1018 1038q2 0 2 2q2 0 6 4q2 2 4 3q2 2 4 2t2 1t2 1q4 0 6 2h4h4h9h2q12 -4 18 -9q2 -2 4 -3t4 -3l2 -2l4 -4q0 -2 1 -3t1 -3q2 -2 3 -4q2 -2 2 -4t2 -4v-6v-5v-10l-174 -979h88q23 0 37 -14t14 -35q0 -23 -14.5 -37t-36.5 -14h-105l-45 -254 q-4 -16 -17.5 -28.5t-31.5 -12.5q-6 0 -8 2q-23 4 -34 20.5t-7 36.5l41 236h-772h-2h-2q-20 0 -35 14q-16 16 -16.5 36zM270 397h676l148 838z" />
<glyph unicode="5" horiz-adv-x="1239" d="M129 181q2 22 18 36q16 12 38 10t36 -18q43 -53 106.5 -81t137.5 -28t151.5 29t145.5 88q86 72 129 163t43 181q0 55 -17.5 106.5t-52.5 92.5q-43 53 -106.5 80.5t-136.5 27.5q-74 0 -152 -28.5t-145 -87.5q-16 -14 -38 -12.5t-36 18.5q-10 14 -10 28q-4 10 0 23l174 584 q6 20 26 30q10 8 27 9h668q23 0 38 -14.5t15 -37.5t-15.5 -37t-37.5 -14h-633l-125 -418q123 59 244 60q92 0 178 -36t145 -110q47 -57 69.5 -124.5t22.5 -139.5q0 -115 -53 -226.5t-154 -197.5q-84 -70 -177 -104.5t-187 -34.5t-179 37t-145 108q-14 16 -12 38z" />
<glyph unicode="6" horiz-adv-x="1314" d="M131 403q0 20 2 31v6q10 147 61.5 316.5t149.5 318.5q49 74 109.5 138.5t134.5 112.5t161 78t185 34q20 2 35.5 -12.5t15.5 -34.5q2 -23 -12.5 -37.5t-34.5 -16.5q-170 -6 -295 -94t-215 -223q-33 -51 -60.5 -106.5t-50.5 -112.5q76 70 170.5 109.5t198.5 39.5 q88 0 163 -30.5t130 -83.5q53 -53 84 -126t31 -159q0 -20 -2 -39.5t-7 -42.5l-49 8l49 -8q-18 -98 -69 -182t-125 -146.5t-165 -99.5t-189 -37q-88 0 -163 31t-128 84t-84 126.5t-31 157.5zM231 403q0 -66 22.5 -120t62.5 -93.5t96.5 -62.5t124.5 -23q78 0 153.5 30t137 82 t104.5 121.5t55 147.5q6 33 6 66q0 63 -22.5 118.5t-62.5 95.5t-96 62.5t-126 22.5h-2q-78 0 -152.5 -31t-135 -83t-103.5 -120.5t-55 -146.5q-6 -35 -7 -66z" />
<glyph unicode="7" horiz-adv-x="1202" d="M140.5 40.5q-5.5 20.5 4.5 37.5l752 1257h-684q-20 0 -34.5 14.5t-14.5 36.5q0 20 14.5 35t34.5 15h772h4h6q2 -2 4 -2t5 -2q4 0 6 -2h2v-3q2 0 3 -1t3 -1q0 -2 1 -2t1 -2l4 -4l2 -2l4 -4q0 -4 2 -4q0 -4 2 -6v-4q0 -2 2 -4v-7v-4q0 -4 -2 -4v-6q0 -2 -2 -4q0 -2 -1 -3 t-1 -3l-2 -2l-797 -1333q-12 -25 -43 -25q-14 0 -24 8q-18 10 -23.5 30.5z" />
<glyph unicode="8" horiz-adv-x="1290" d="M113 391q0 20 2 41t6 41q12 74 46 140.5t82 120.5t109.5 96t128.5 67l-14 14q-72 72 -72 181v26t5 27q12 61 43.5 113.5t77.5 91.5t102.5 61.5t118.5 22.5q113 0 186 -74q35 -35 53.5 -81t18.5 -99v-26.5t-5 -27.5q-14 -74 -57 -135t-106 -100q59 -29 106 -74 q53 -53 83 -124.5t30 -155.5q0 -41 -6 -80q-18 -96 -68.5 -179t-123.5 -144.5t-162 -97.5t-185 -36q-86 0 -159.5 29.5t-127.5 83.5q-53 53 -82.5 124.5t-29.5 153.5zM170 465l47 -8q-6 -35 -6 -66q0 -63 22.5 -116.5t61.5 -92.5t94 -61.5t123 -22.5q76 0 149.5 30t134 81 t102.5 118.5t54 145.5q6 33 6 64q-2 129 -82.5 210.5t-218.5 83.5q-76 0 -149.5 -29.5t-134 -80.5t-102.5 -120t-54 -144zM453 1135l49 -9q-2 -10 -2 -17v-17q0 -68 43 -111t116 -45q43 0 84 16.5t75 45t57.5 66.5t29.5 81q2 10 2 17v18q0 68 -43 110.5t-116 44.5 q-43 0 -84 -16t-75 -45t-57.5 -67t-29.5 -81z" />
<glyph unicode="9" horiz-adv-x="1314" d="M135 887q0 41 6 82q18 98 69.5 182t125.5 146.5t165 99.5t189 37q88 0 163 -31t128 -84q115 -111 115 -285v-28v-9q-12 -147 -64.5 -316t-148.5 -316q-49 -74 -109.5 -138.5t-134.5 -114t-160 -79t-184 -33.5h-2q-20 0 -34.5 13.5t-16.5 35.5q0 20 13 35.5t36 15.5 q168 8 293 96.5t215 223.5q66 98 110 217q-76 -70 -170 -109t-198 -41q-88 0 -163 31t-128 84q-55 53 -85 127t-30 158zM193 961l49 -9q-6 -35 -6 -65q0 -66 22.5 -120t62 -94t95 -62.5t125.5 -22.5q78 0 152.5 29.5t136 82t104.5 122t55 147.5q6 33 6 65q-2 131 -84 214 t-221 85q-78 0 -152.5 -29.5t-136 -82t-104.5 -122t-55 -147.5z" />
<glyph unicode=":" horiz-adv-x="491" d="M186 70q4 31 30 52t54 21q31 0 48.5 -21t13.5 -52q-6 -29 -31 -50.5t-55 -21.5q-31 0 -48.5 21.5t-11.5 50.5zM377 1153q4 31 29.5 52.5t56.5 21.5q29 0 47 -21.5t12 -52.5q-4 -31 -29.5 -52.5t-56.5 -21.5t-48 21.5t-11 52.5z" />
<glyph unicode=";" horiz-adv-x="491" d="M123 -180q0 16 18 26q59 31 86 68t27 90q-23 6 -37 23.5t-10 48.5l4 43q4 29 25.5 48t50.5 19t46 -19.5t13 -47.5l-4 -51q-10 -86 -29.5 -135.5t-50.5 -77.5q-29 -29 -63.5 -47.5t-48.5 -18.5q-10 0 -19.5 7.5t-7.5 23.5zM399 1155q4 31 28.5 52.5t57.5 21.5 q29 0 46.5 -21.5t13.5 -52.5q-4 -29 -31 -50.5t-55 -21.5q-31 0 -48.5 21.5t-11.5 50.5z" />
<glyph unicode="&#x3c;" horiz-adv-x="1269" d="M123 709v6v4q0 4 2 6v6q0 2 1 2t1 2t1 3t1 3q2 2 2 4q4 4 4 7l2 2l6 6l770 657q18 16 42 14.5t40 -20.5q16 -18 14.5 -43t-20.5 -41l-725 -620l500 -613q16 -20 13 -43.5t-21 -40.5q-16 -12 -37 -12q-12 0 -24.5 5t-20.5 15l-539 660q0 2 -4 6v2q-4 4 -4 8l-2 2v9 q-2 2 -2 4z" />
<glyph unicode="=" horiz-adv-x="1269" d="M162 489q0 23 17.5 40.5t39.5 17.5h758q27 0 43 -17.5t16 -40.5q0 -25 -16 -42t-43 -17h-758q-23 0 -40 17.5t-17 41.5zM242 946q0 23 17 40.5t42 17.5h758q23 0 40 -17.5t17 -40.5q0 -27 -17.5 -43t-39.5 -16h-758q-25 0 -42 16.5t-17 42.5z" />
<glyph unicode="&#x3e;" horiz-adv-x="1269" d="M188.5 64.5q1.5 23.5 20.5 39.5l725 621l-500 614q-16 18 -13 42t21 40t42 14.5t40 -22.5l539 -657q2 -2 2 -4t2 -4q4 -8 4 -11q2 0 2 -2q0 -4 2 -8v-2v-6v-6q0 -2 -2 -4v-7q0 -2 -1 -2t-1 -2t-1 -3t-1 -3q-2 -2 -2 -4q-4 -4 -4 -6q-2 0 -2 -1t-2 -1q0 -2 -4 -6 l-770 -658q-14 -14 -37 -14q-27 0 -45 21q-16 18 -14.5 41.5z" />
<glyph unicode="?" horiz-adv-x="1093" d="M82 1180.5q-2 19.5 10 36.5q72 98 181.5 156.5t232.5 58.5q82 0 150.5 -28t119.5 -79q109 -104 109 -266q0 -18 -2 -38t-6 -40q-16 -86 -59.5 -161t-107 -132t-141 -93t-163.5 -44l-39 -227q-4 -18 -17.5 -29.5t-30.5 -11.5q-6 0 -8 2q-20 4 -31.5 19t-7.5 36l45 256 q0 2 2 4q2 18 15.5 30.5t32.5 12.5q72 0 141.5 27.5t125.5 77t96 114t52 135.5q6 33 6 62q-2 121 -77.5 198.5t-204.5 79.5q-98 0 -188.5 -49t-149.5 -129q-12 -16 -31.5 -18t-36.5 10q-16 10 -18 29.5zM221 55l8 45q4 18 21 30.5t35 8.5q20 -4 31.5 -20.5t7.5 -34.5l-9 -45 q-4 -18 -17 -29.5t-30 -11.5q-4 0 -8 2q-18 4 -30.5 19.5t-8.5 35.5z" />
<glyph unicode="@" horiz-adv-x="2007" d="M109 600q0 31 3 61.5t7 63.5q27 147 104.5 276t190 224.5t252 152t286.5 56.5q133 0 245 -46.5t194 -127.5q82 -80 127 -189.5t45 -239.5q0 -61 -13 -124q-31 -174 -135 -326q-2 0 -16.5 -18.5t-41 -43t-63.5 -48t-84 -35.5q-10 -2 -20 -3.5t-21 -1.5q-33 -2 -59.5 11.5 t-42.5 36.5q-16 20 -21.5 43.5t-5.5 46.5v24l9 49q-57 -51 -127 -80.5t-146 -29.5q-68 0 -125 24.5t-98 69.5t-64.5 103.5t-21.5 123.5q0 18 1 36t5 36q14 78 53 145.5t95.5 118.5t127 81t146.5 30q66 0 124 -24.5t99 -69.5q86 -90 86 -228q0 -35 -6 -71q-2 -4 -2 -8.5 t-2 -8.5v-6l-53 -305q0 -4 -1 -6t-1 -4q0 -20 8 -29q4 -4 7 -6t15 -2q10 0 19 2q25 4 48.5 18.5t42.5 31.5t33.5 32.5t18.5 21.5l2 2q45 66 76 136.5t43 148.5q4 29 7 54.5t3 51.5q0 109 -38 200t-104.5 158.5t-160.5 105.5t-207 38q-127 0 -249.5 -49t-223 -135 t-170 -199.5t-92.5 -242.5q-4 -29 -6 -54.5t-2 -52.5q0 -109 37 -200t103.5 -157.5t159.5 -105.5t208 -39q41 0 80 5.5t77 15.5q20 4 38 -6.5t22 -30.5q6 -20 -4 -38.5t-33 -23.5q-43 -10 -88 -15t-92 -5q-133 0 -244.5 45t-193.5 127t-126 190.5t-44 237.5zM565 653 q2 -98 59.5 -158.5t151.5 -62.5q55 0 108.5 22.5t97.5 62.5t76 93.5t42 114.5q4 14 4 26.5v26.5q-2 98 -58.5 158.5t-150.5 62.5h-4q-53 0 -106.5 -23.5t-97.5 -63.5t-75 -93t-41 -112q-6 -29 -6 -54z" />
<glyph unicode="A" horiz-adv-x="1323" d="M121 36q-2 7 -2 14q0 12 6 24l737 1333q12 27 45 27q18 0 32.5 -11.5t18.5 -29.5l267 -1334q1 -5 1 -10q0 -13 -8 -27q-12 -18 -32 -22h-10q-18 0 -32 11.5t-18 29.5l-65 332h-658l-190 -346q-14 -27 -43 -27q-12 0 -25 6q-18 10 -24 30zM459 473h581l-153 772z" />
<glyph unicode="B" horiz-adv-x="1216" d="M219 61l234 1334q4 18 19 29.5t34 11.5h2h313q66 0 123 -23.5t98 -64.5t63.5 -96.5t22.5 -118.5q0 -31 -6 -62q-16 -86 -64 -156.5t-118 -117.5q68 -29 115 -76t73 -111q25 -59 25 -125v-10q0 -35 -6 -72q-16 -84 -59.5 -157.5t-106.5 -126.5t-142 -85t-163 -32h-404h-2 h-2h-10q-20 4 -32 20q-9 12 -8 28q0 5 1 11zM328 102h348q63 0 125.5 25t114 69t87 101t46.5 123q6 26 6 55q-2 106 -69.5 175t-182.5 71h-367zM455 823h258q53 0 105 20.5t95 57.5t73 85t38 101q4 12 4 24v22q-2 90 -57.5 145t-149.5 57h-276z" />
<glyph unicode="C" horiz-adv-x="1472" d="M150 604q0 29 2 59.5t8 61.5q27 147 106.5 276t194 225.5t257 152t294.5 55.5q129 0 239.5 -42t194.5 -116q17 -15 17 -37q0 -19 -13 -35q-14 -16 -33.5 -17t-36.5 13q-70 61 -163 97t-205 36q-133 0 -258 -49t-228.5 -134t-174 -198.5t-93.5 -242.5q-4 -29 -6 -54.5 t-2 -50.5q0 -109 38 -201t107.5 -158.5t166.5 -105.5t214 -39q113 0 221.5 36t202.5 100q16 12 36.5 8t33.5 -21q12 -16 8 -36.5t-21 -32.5q-106 -72 -229 -113t-252 -41q-135 0 -249.5 45t-200.5 127q-84 82 -130 192.5t-46 239.5z" />
<glyph unicode="D" horiz-adv-x="1472" d="M217 57l236 1334q4 18 18 29.5t31 11.5h2h266q133 0 244.5 -45.5t193.5 -126.5q82 -82 126 -192t44 -237q0 -31 -3 -61.5t-7 -62.5q-27 -147 -104.5 -276.5t-190 -224.5t-252 -151.5t-286.5 -56.5h-267h-2h-8q-20 4 -32 20q-9 12 -10 29q0 5 1 10zM328 98h207 q127 0 249.5 49.5t223 134.5t170 198.5t92.5 242.5q4 29 6 55.5t2 52.5q0 106 -37 198.5t-103.5 159t-160.5 104.5t-207 38h-225z" />
<glyph unicode="E" horiz-adv-x="1214" d="M217 55l236 1334q4 18 18 29.5t33 11.5h2h735q20 0 34.5 -14.5t14.5 -37.5q0 -20 -14 -34.5t-35 -14.5h-696l-101 -567h594q20 0 34.5 -14.5t14.5 -34.5q0 -23 -14 -37t-35 -14h-612l-100 -566h680q20 0 34.5 -14t14.5 -37q0 -20 -14.5 -34.5t-34.5 -14.5h-736h-2h-2h-8 q-20 4 -32 20q-9 12 -10 29q0 5 1 10z" />
<glyph unicode="F" horiz-adv-x="1228" d="M219 63l234 1334q4 18 18 29.5t33 11.5h4h733q20 0 34.5 -14.5t14.5 -37.5q0 -20 -14 -34.5t-35 -14.5h-696l-101 -567h594q20 0 34.5 -14.5t14.5 -34.5q0 -23 -14 -37t-35 -14h-610l-111 -625q-4 -18 -18 -29.5t-31 -11.5h-10q-20 4 -32 20q-9 12 -8 28q0 5 1 11z" />
<glyph unicode="G" horiz-adv-x="1638" d="M150 608q0 59 12 121q27 147 105.5 276.5t194.5 225.5t258 151.5t294 55.5q129 0 239.5 -42t194.5 -116q17 -15 17 -37q0 -19 -13 -35q-14 -16 -34.5 -17t-37.5 13q-68 61 -161 97t-205 36q-133 0 -259 -49t-228.5 -134t-174 -198.5t-92.5 -242.5q-4 -29 -7 -54.5 t-3 -50.5q0 -109 39 -201t107.5 -158.5t165.5 -105.5t216 -39q109 0 212.5 33t195.5 92l71 412h-378q-20 0 -35 14.5t-15 34.5q0 23 14.5 37t35.5 14h434h2q8 0 10 -2q23 -4 34 -20.5t7 -36.5l-86 -487q0 -6 -4 -15q0 -2 -2 -2v-2q-4 -4 -7 -9t-10 -9q-104 -72 -227 -113 t-252 -41q-137 0 -251.5 45t-198.5 127q-86 82 -132 192.5t-46 239.5z" />
<glyph unicode="H" horiz-adv-x="1556" d="M217 53l236 1333q5 23 21 34q12 8 26 8q5 0 10 -1q23 -4 34 -20t7 -37l-107 -608h736l110 624q4 22 20 34q12 8 26 9q6 0 12 -2q20 -4 32 -20q9 -12 10 -27q0 -5 -1 -10l-236 -1333q-4 -18 -18.5 -29.5t-30.5 -11.5h-8q-23 4 -34 20.5t-7 36.5l106 609h-735l-111 -625 q-4 -18 -17 -29.5t-32 -11.5h-8q-20 4 -32 20q-9 12 -10 28q0 4 1 9z" />
<glyph unicode="I" horiz-adv-x="624" d="M231 53l236 1333q5 22 21 34q12 8 24 9q6 0 12 -2q20 -4 32 -20q9 -12 10 -27q0 -5 -1 -10l-235 -1333q-4 -18 -17.5 -29.5t-31.5 -11.5h-9q-23 4 -34 20q-8 12 -8 27q0 5 1 10z" />
<glyph unicode="J" horiz-adv-x="1216" d="M90 342q-1 5 -1 10q0 16 11 28q13 15 33 19t36.5 -8t20.5 -35q16 -115 99.5 -186.5t212.5 -71.5q80 0 157.5 31t141 84t107.5 126t59 153l157 897q4 23 20 34q13 8 27 8q5 0 11 -1q23 -4 34 -20q8 -13 8 -27q0 -5 -1 -11l-158 -897q-18 -100 -70.5 -187t-128 -151.5 t-170 -101.5t-194.5 -37h-2q-80 0 -150.5 25.5t-124 71.5t-89.5 109.5t-46 137.5z" />
<glyph unicode="K" horiz-adv-x="1464" d="M217 61l236 1334q5 23 21 34q12 8 26 8q5 0 10 -1q20 -4 32.5 -20.5t8.5 -37.5l-143 -819l1017 866q15 12 34 12q1 -1 2 -1q20 0 34 -17q12 -14 12 -31v-6q-2 -20 -18 -34l-651 -555l460 -713q12 -16 7 -36.5t-21 -33.5q-12 -6 -27 -6q-29 0 -43 23l-454 702l-379 -323 h-2l-64 -361q-4 -18 -17 -29.5t-32 -11.5h-8q-20 4 -32 20q-9 12 -10 28q0 4 1 9z" />
<glyph unicode="L" horiz-adv-x="1267" d="M217 55l236 1334q4 23 20 34q12 8 26 8q5 0 11 -1q20 -4 32.5 -20.5t8.5 -37.5l-225 -1276h678q23 0 37 -14.5t14 -34.5q0 -23 -14.5 -36t-36.5 -13h-734h-2h-2h-8q-23 4 -34 20q-8 12 -8 27q0 5 1 10z" />
<glyph unicode="M" horiz-adv-x="1777" d="M217 55l236 1334q4 19 18 31q12 11 28 10h5h7q24 0 40 -25l381 -705l639 713q14 17 33 17h6q3 2 5.5 2t4.5 -2q23 -4 34 -20q8 -12 8 -27q0 -5 -1 -11l-236 -1333q-4 -18 -17 -29.5t-32 -11.5h-8q-20 4 -32.5 20.5t-8.5 36.5l207 1166l-571 -635q-12 -16 -37 -17h-2h-4 q-12 0 -24.5 7.5t-18.5 19.5l-349 639l-211 -1196q-4 -18 -18 -29.5t-31 -11.5h-10q-20 4 -32 20q-9 12 -10 28q0 4 1 9z" />
<glyph unicode="N" horiz-adv-x="1617" d="M217 61l234 1328l2 2q0 23 24 41q11 6 23 6q7 0 15 -2q20 -6 30 -25l659 -1210l209 1188q4 20 20.5 32.5t36.5 8.5q22 -4 34 -20q8 -12 9 -27q0 -6 -2 -13l-233 -1325q-4 -18 -18.5 -29.5t-30.5 -11.5h-8q-23 2 -37 25q0 4 -4 8l-654 1200l-211 -1192q-4 -18 -17 -29.5 t-32 -11.5h-8q-20 4 -32 20q-9 12 -10 28q0 4 1 9z" />
<glyph unicode="O" horiz-adv-x="1740" d="M150 592q0 66 12 133q27 147 100.5 275t181 224.5t239.5 153t273 56.5q125 0 230.5 -46.5t181.5 -125.5q76 -80 118 -188.5t42 -233.5q0 -66 -12 -133l-50 10l50 -10q-27 -147 -102 -275.5t-182.5 -224.5t-238.5 -151.5t-272 -55.5q-125 0 -230.5 45t-181.5 125 q-78 80 -118.5 188.5t-40.5 233.5zM250 592q0 -106 34.5 -196.5t97 -156t148.5 -103.5t191 -38q119 0 234.5 49.5t211 134.5t161.5 199.5t89 243.5q4 29 7 57.5t3 57.5q0 106 -34.5 196t-97 155.5t-148.5 103.5t-191 38h-4q-119 0 -233.5 -49t-208.5 -135t-160.5 -199.5 t-89.5 -242.5q-4 -29 -7 -57.5t-3 -57.5z" />
<glyph unicode="P" horiz-adv-x="1193" d="M217 59l236 1334q4 18 18.5 29.5t30.5 11.5h2h403q76 0 140.5 -27t111.5 -74t72.5 -110.5t25.5 -135.5q0 -35 -6 -71q-16 -84 -59 -157t-106.5 -127t-142.5 -86t-163 -32h-364l-101 -573q-4 -18 -17 -29.5t-32 -11.5q-6 0 -8 2q-20 4 -32 20q-9 12 -10 28q0 4 1 9z M434 715h346q63 0 126 24.5t114 68.5t87 101.5t46 122.5q4 14 4 27.5v27.5q0 109 -67.5 176.5t-182.5 69.5h-364z" />
<glyph unicode="Q" horiz-adv-x="1728" d="M198 463q-12 61 -12 125q0 66 13 135q27 150 103.5 282t187 231t245.5 157.5t279 60.5q143 -2 259 -60.5t190.5 -157.5t104.5 -232q17 -71 17 -147q0 -65 -12 -134q-20 -111 -69.5 -214t-121 -190.5t-160.5 -155t-188 -110.5l-223 -94q29 -6 57.5 -17.5t57.5 -31.5 q72 -47 143.5 -76t142.5 -29q61 0 129 22.5t154 78.5q18 14 39 12t31 -20q8 -16 3 -36t-26 -36q-92 -63 -179 -92t-165 -29h-2q-98 0 -180 35t-156 82q-41 29 -81 37t-81 8q-72 0 -129 -18.5t-69 -26.5h-2q-14 -8 -29.5 -6t-26.5 10h-2q-4 4 -7 9t-5 13q-4 20 6 40t33 30 l205 86q-125 16 -223.5 79.5t-162 160t-88.5 219.5zM299 723q-11 -59 -11 -116q0 -66 15 -127q27 -115 91.5 -199t162.5 -133.5t219 -49.5q119 0 234.5 49.5t211 133.5t162 198.5t89.5 243.5q12 63 12 122q0 64 -14 123q-27 115 -92.5 200t-164 134.5t-219.5 49.5 t-235.5 -49.5t-208.5 -134.5t-160.5 -199.5t-91.5 -245.5z" />
<glyph unicode="R" horiz-adv-x="1280" d="M188 59l236 1334q4 18 18.5 29.5t32.5 11.5h2h402q76 0 140 -27t111 -74t74 -110.5t27 -135.5q0 -35 -6 -71q-23 -125 -105 -222.5t-196 -144.5q29 -16 57.5 -41.5t51 -58.5t35.5 -75t13 -93q0 -16 -1 -33.5t-3 -34.5q-8 -41 -11 -71.5t-3 -53.5q0 -31 3 -46t7 -19h7 q34 0 46 -37q6 -20 -4 -37.5t-30 -23.5q-4 -4 -23 -5h-2q-16 0 -36.5 9.5t-37.5 31.5q-30 42 -30 122v5q0 59 14 144q6 24 6 49q-2 63 -28.5 103t-65.5 69t-79 43t-58 18h-4h-359l-100 -573q-4 -16 -18.5 -28.5t-30.5 -12.5q-6 0 -11 2q-21 4 -33 20q-9 12 -9 28q0 4 1 9z M408 715h344q63 0 125.5 24.5t113.5 68.5t87 101.5t48 122.5q2 14 3 27.5t1 27.5q-2 109 -69.5 176.5t-181.5 69.5h-363z" />
<glyph unicode="S" horiz-adv-x="1366" d="M154 266q14 16 32.5 17.5t30.5 -11.5q33 -31 79 -63.5t101.5 -59t119 -43t130.5 -16.5q92 0 177 25.5t151 68.5t106.5 97.5t51.5 113.5q3 20 3 38q0 37 -12 67q-20 46 -71 86q-51 39 -130 66.5t-178 47.5h-4q-96 18 -175 47t-136 72q-59 43 -88 105q-18 39 -18 86 q0 27 6 57q14 80 66.5 148.5t125.5 115.5q76 49 167 76t190 27q70 0 129 -15.5t109 -39t92 -53.5t79 -56q14 -10 14 -28q0 -1 1 -1q0 -17 -13 -33q-14 -16 -32.5 -19t-32.5 7q-37 27 -76 53.5t-83 48t-94 35t-108 13.5q-86 0 -163.5 -24t-137.5 -62q-59 -41 -97 -90.5 t-48 -102.5q-3 -17 -3 -33q0 -81 77 -139q96 -72 282 -107h4q104 -20 189.5 -50.5t146.5 -78.5q61 -47 93 -113q21 -44 21 -96q0 -26 -5 -55q-16 -86 -71.5 -158.5t-137.5 -123.5q-80 -53 -178.5 -83t-204.5 -30q-80 0 -151.5 19.5t-132 48t-110.5 65.5t-87 72 q-12 10 -12 27q0 20 16 34z" />
<glyph unicode="T" horiz-adv-x="1327" d="M102 1386q0 20 14.5 35t35.5 15h964q20 0 34.5 -14.5t14.5 -35.5q0 -23 -14 -37t-35 -14h-440l-227 -1292q-4 -16 -17.5 -28.5t-32.5 -12.5q-6 0 -8 2q-23 4 -34 20.5t-7 36.5l223 1274h-421q-20 0 -35 14.5t-15 36.5z" />
<glyph unicode="U" horiz-adv-x="1667" d="M215 489q0 25 3 49.5t7 51.5l142 805q4 21 20 33q12 9 27 9q5 0 10 -1q23 -4 34 -20.5t7 -39.5l-141 -803q-8 -39 -9 -84q0 -84 29 -154.5t81 -121.5t125 -81t161 -30q98 0 193 38t174 104.5t133.5 155.5t70.5 190l143 805q4 21 21 33q13 9 27 9q5 0 10 -1q21 -4 33 -20 q9 -12 9 -29q0 -5 -1 -11l-144 -803q-23 -119 -85 -223t-152 -181t-202 -122t-230 -45h-2q-106 0 -197.5 37t-157.5 102q-66 66 -102.5 155t-36.5 193z" />
<glyph unicode="V" horiz-adv-x="1536" d="M123 1374q-2 8 -2 15q0 12 6 23q10 18 33 22q7 2 14 2q12 0 24 -6q18 -10 21 -31l297 -1217l735 1229q10 17 31 23q7 2 14 2q12 0 23 -6q18 -10 23 -31q2 -7 2 -14q0 -13 -7 -25l-796 -1333l-2 -2l-7 -7q0 -2 -1 -2t-1 -2q-2 -2 -3 -2t-3 -2q-2 0 -2 -1t-2 -1 q-2 -2 -4 -2t-4 -2h-2q-4 -2 -12 -2t-13 2h-2q-8 4 -10 6h-2q-2 2 -3 2t-3 2l-2 2l-6 7q-4 6 -8 18z" />
<glyph unicode="W" horiz-adv-x="2256" d="M129 1370q-1 6 -1 11q0 15 7 27q10 18 31 24q6 1 11 1q15 1 27 -7q18 -10 21 -31l299 -1217l520 873q14 25 46 24q18 2 33.5 -9t19.5 -28l211 -860l733 1229q11 17 31 23q7 2 13 2q13 0 26 -7q16 -11 21 -31q2 -7 2 -13q0 -13 -7 -25l-797 -1333l-2 -3q-2 -2 -2 -3t-4 -3 q0 -2 -1 -2t-1 -2q-2 0 -6 -4q-2 0 -2 -1t-2 -1q-2 -2 -8 -2l-2 -2h-9q-2 0 -2 -1t-2 -1q-4 0 -6 1t-6 1h-2q-8 4 -10 6h-2q-4 4 -7 4l-2 2q-4 4 -4 6q-2 0 -2 2q-4 4 -4 7q-2 4 -2 5t-2 5l-211 866l-526 -880l-2 -3q0 -4 -6 -6q0 -2 -1 -2t-1 -2q-2 0 -7 -4q-2 0 -2 -1 t-2 -1q-2 -2 -8 -2l-2 -2h-8q-2 0 -2 -1t-2 -1q-4 0 -6 1t-6 1h-3q-8 4 -10 6h-2q-4 4 -6 4l-2 2q-4 4 -4 6q-2 0 -2 2q-4 4 -8 17z" />
<glyph unicode="X" horiz-adv-x="1478" d="M155 46q0 18 13 34l582 641l-353 635q-10 18 -4 37.5t23 29.5q18 10 38.5 5t30.5 -23l336 -606l557 614q14 15 35 17q2 0 4 1q19 0 31 -14q16 -15 17 -35v-2q0 -19 -13 -34l-580 -639l353 -635q10 -18 4 -39t-25 -31q-12 -6 -24 -6t-24.5 7t-18.5 20l-336 606l-557 -617 q-16 -16 -39 -16q-18 0 -33 14q-17 15 -17 36z" />
<glyph unicode="Y" horiz-adv-x="1236" d="M121 1394q6 19 22 29q18 10 39 5t31 -23l338 -612l563 620q14 16 34 17q2 1 4 1q19 0 34 -14q17 -15 17 -36q0 -18 -13 -33l-602 -664l-113 -645q-4 -18 -18.5 -29.5t-30.5 -11.5h-10q-20 4 -32.5 20.5t-8.5 36.5l114 643l-364 658q-6 11 -6 23q0 7 2 15z" />
<glyph unicode="Z" horiz-adv-x="1366" d="M145 45v2l2 2v6v4q2 2 3 7q2 2 2 4q2 2 2 4l4 4q0 2 2 2l1132 1249h-860q-23 0 -37 14.5t-14 36.5q0 20 14.5 35t36.5 15h975h2h6q2 0 4 -3h4q2 -2 3 -2t4 -2h2q4 -4 6 -4l2 -2q4 -4 4 -6q2 0 2 -1t2 -1q0 -4 2 -4l2 -4q0 -4 2 -4v-6q2 0 2 -5v-6v-4v-4q-2 -2 -2 -6 q0 -2 -2 -4q0 -2 -2 -4q0 -4 -2 -4l-2 -4q-2 -2 -2 -4l-1135 -1250h862q20 0 35 -14t15 -35q0 -23 -14.5 -37t-35.5 -14h-974h-2q-2 0 -4.5 1t-4.5 1h-4q-2 2 -4 2t-2 1t-2 1l-4 2l-4 4q-2 0 -4 2l-4 4q0 2 -1 2t-1 2q-2 0 -2 5q-2 2 -2 4q-2 2 -2 4q-2 4 -3 4v6q0 2 -2 4z " />
<glyph unicode="[" horiz-adv-x="880" d="M207 -213l334 1593q4 23 23.5 38.5t41.5 15.5h475q16 0 25.5 -11.5t5.5 -27.5t-18.5 -27.5t-30.5 -11.5h-434l-322 -1544h434q16 0 24.5 -11.5t4.5 -27.5t-17.5 -27.5t-29.5 -11.5h-475q-23 0 -34 15t-7 38z" />
<glyph unicode="\" horiz-adv-x="1024" d="M29 1400.5q8 18.5 28 26.5t38 0t28 -26l559 -1327q8 -20 -0.5 -39t-26.5 -29q-6 -2 -20 -2q-33 0 -45 31l-559 1327q-10 20 -2 38.5z" />
<glyph unicode="]" horiz-adv-x="880" d="M117 -227q4 16 18.5 27.5t30.5 11.5h434l322 1544h-435q-16 0 -24 11t-4 28q4 16 17 27.5t30 11.5h475q23 0 34 -15.5t7 -38.5l-334 -1593q-4 -23 -23.5 -38t-41.5 -15h-476q-16 0 -25 11t-5 28z" />
<glyph unicode="^" horiz-adv-x="1024" d="M166 1022q0 10 14 27l336 360q16 16 30.5 26.5t33.5 10.5h16q18 0 29.5 -10.5t21.5 -26.5l209 -360q4 -10 5 -15.5t1 -11.5q-2 -8 -10 -15.5t-25 -7.5q-53 0 -69 29l-189 322l-303 -322q-16 -16 -34.5 -22.5t-41.5 -6.5q-14 0 -20 7.5t-4 15.5z" />
<glyph unicode="_" horiz-adv-x="1228" d="M-41 -283q4 18 21.5 31.5t35.5 13.5h1237q18 0 27.5 -13t5.5 -32q-6 -18 -23.5 -31.5t-35.5 -13.5h-1237q-18 0 -27.5 13.5t-3.5 31.5z" />
<glyph unicode="`" horiz-adv-x="1024" d="M336 1434q2 16 32.5 31.5t59.5 15.5q33 0 51 -37l101 -191q6 -10 4 -22q0 -8 -9.5 -13.5t-19.5 -5.5q-20 0 -32.5 5.5t-28.5 21.5l-142 158q-18 23 -16 37z" />
<glyph unicode="a" horiz-adv-x="1267" d="M82 416q0 51 8 92q18 100 69.5 190t125 157t166 105.5t190.5 38.5q88 0 162 -31.5t127 -88.5q37 -41 59 -82l29 161q4 20 20 33q11 9 24 9q5 0 11 -1q21 -4 33 -20q9 -12 9 -27q0 -5 -1 -10l-160 -901q-4 -18 -17 -29.5t-32 -11.5h-8q-20 4 -31.5 20.5t-7.5 36.5l23 131 q-78 -86 -180.5 -136t-219.5 -52q-88 0 -161.5 31.5t-126.5 89.5q-111 117 -111 295zM178 416q2 -139 85 -227.5t218 -90.5q78 0 154 32t138.5 87t106.5 130t58 161q6 39 6 76q-2 139 -84 227t-219 90h-2q-78 0 -152.5 -32.5t-136 -88t-106 -130t-58.5 -158.5q-8 -35 -8 -76 z" />
<glyph unicode="b" horiz-adv-x="1351" d="M197 55l233 1334q4 21 20 33q12 9 29 9q5 0 10 -1q20 -4 33 -20.5t8 -39.5l-100 -559q80 86 186.5 136t223.5 52q92 0 167.5 -31.5t131.5 -88.5q55 -57 84.5 -134t29.5 -165q0 -49 -8 -91l-49 9l49 -9q-18 -102 -70.5 -192t-128 -156.5t-170 -105.5t-194.5 -39h-2 q-90 0 -166 31.5t-131 89.5q-37 41 -59 82l-29 -162q-4 -18 -18.5 -29.5t-30.5 -11.5h-10q-20 4 -32 20q-9 12 -8 28q0 5 1 11zM367 416q0 -70 23.5 -128.5t64.5 -100.5t98 -66.5t129 -24.5q80 0 156.5 32t140 88t109 131t59.5 159q6 37 6 74q0 70 -22.5 128t-63.5 100 t-99.5 66.5t-127.5 24.5h-2q-80 0 -157 -32.5t-140.5 -88t-107.5 -130.5t-58 -159q-8 -35 -8 -73z" />
<glyph unicode="c" horiz-adv-x="1169" d="M119 426q0 45 8 84q18 104 73.5 193.5t135.5 156t178 105.5t203 39q92 0 170 -29t137 -82q15 -15 15 -36q0 -18 -13 -34q-14 -16 -33.5 -17t-34.5 13q-45 41 -105 63.5t-136 22.5q-86 0 -169 -32.5t-150.5 -89t-113.5 -131t-61 -158.5q-6 -37 -6 -68q0 -70 24.5 -129 t69.5 -102t107.5 -69t140.5 -26q72 0 143.5 23.5t135.5 66.5q16 10 36.5 6.5t30.5 -20.5q10 -16 7 -35.5t-19 -31.5q-74 -49 -159 -78t-175 -29q-96 0 -176 32t-139 89q-59 59 -92 136t-33 167z" />
<glyph unicode="d" horiz-adv-x="1351" d="M123 422q0 23 2 45t6 45q18 102 70.5 192.5t129.5 157t170 105.5t195 39q90 0 166 -32t131 -89q18 -18 32.5 -39t29.5 -43l102 592q3 21 21 33q13 9 29 9q5 0 10 -1q21 -4 33 -20q9 -12 8 -27q0 -6 -1 -13l-235 -1333q-4 -18 -18.5 -29.5t-30.5 -11.5h-8q-23 4 -34 20.5 t-7 38.5l22 129q-80 -86 -186.5 -137t-222.5 -51h-2q-90 0 -166 32t-131 89t-85 134t-30 165zM180 504l49 -8q-6 -41 -6 -74q0 -70 22.5 -128t63.5 -100t98.5 -67t129.5 -25q80 0 157.5 32t141 88.5t108.5 131t60 158.5q6 37 6 74q-2 141 -87 229t-227 90 q-80 0 -157.5 -31.5t-141 -88t-108.5 -131t-60 -158.5z" />
<glyph unicode="e" horiz-adv-x="1247" d="M119 420q0 23 2 45t6 47q18 102 70.5 191.5t128 156t170 105.5t196.5 39q90 0 165 -32t130 -89t86 -133t31 -164q0 -14 -1 -26.5t-3 -27.5q0 -4 -1 -6t-1 -6q-4 -16 -17.5 -27.5t-29.5 -11.5h-830q-4 -16 -4 -30.5v-30.5q0 -70 22.5 -128.5t64.5 -100t99.5 -66.5 t126.5 -25q104 0 200.5 50.5t162.5 134.5q14 16 33.5 18t36.5 -12q16 -12 18 -30.5t-12 -35.5q-78 -100 -194 -161.5t-245 -61.5h-2q-90 0 -164.5 32t-130.5 89q-55 57 -84.5 133t-29.5 164zM248 582h758v4q-2 139 -87.5 228t-226.5 91q-72 0 -139.5 -24.5t-126.5 -67.5 t-105.5 -102.5t-72.5 -128.5z" />
<glyph unicode="f" horiz-adv-x="741" d="M137 971q4 20 21.5 34.5t38.5 14.5h133l18 106q14 78 39 135.5t68 98.5q45 41 100.5 56.5t114.5 15.5q20 0 32 -14q10 -11 10 -27q0 -5 -1 -11q-4 -20 -20.5 -34.5t-39.5 -14.5q-51 0 -81.5 -10t-51.5 -29q-20 -18 -38.5 -57t-30.5 -109l-19 -106h141q23 0 34 -14.5 t7 -34.5q-4 -23 -20.5 -37t-36.5 -14h-141l-156 -873q-4 -20 -20.5 -34.5t-36.5 -14.5q-23 0 -34 14.5t-7 34.5l153 873h-135q-20 0 -32 14q-10 11 -10 26q0 5 1 11z" />
<glyph unicode="g" horiz-adv-x="1351" d="M123 412q0 23 3 46t7 48q18 100 70.5 190t126 157t165 106.5t187.5 39.5q88 0 163 -31.5t130 -88.5q37 -41 57 -84l29 163q4 20 19 33q12 9 25 9q5 0 11 -1q23 -4 34 -20q8 -12 8 -27q0 -6 -1 -12l-80 -453l-73 -421q-18 -98 -69.5 -183.5t-125.5 -148t-164 -99 t-186 -36.5q-113 0 -205 51q-18 10 -24.5 28.5t3.5 36.5q10 16 29 22.5t37 -3.5q35 -16 74 -26.5t86 -10.5q76 0 150.5 30.5t136 83t104.5 123t57 150.5l17 98q-78 -84 -181.5 -134t-214.5 -50h-2q-88 0 -162.5 31.5t-127.5 89.5q-53 53 -83 129t-30 164zM221 412 q2 -141 86 -228.5t221 -87.5q76 0 151 31t137.5 86t106.5 131t58 162q8 33 8 72q-2 143 -86 232t-221 89h-2q-76 0 -150.5 -32.5t-136 -88t-106 -130.5t-58.5 -161q-8 -35 -8 -75z" />
<glyph unicode="h" d="M190 45q0 8 3 10l233 1334q4 23 20 34q12 8 28 8q5 0 11 -1q20 -4 32.5 -20.5t8.5 -37.5l-86 -508q66 63 152 100t180 40q78 0 143.5 -28t114.5 -75q47 -47 73.5 -112.5t26.5 -139.5q0 -35 -6 -71l-98 -539q-4 -18 -18.5 -29.5t-30.5 -11.5h-10q-20 4 -31.5 20.5 t-7.5 36.5l98 539q2 16 3 29.5t1 25.5q-2 111 -71.5 181.5t-186.5 72.5q-66 0 -130 -25.5t-116.5 -70.5t-88.5 -104.5t-48 -124.5l-98 -539v-2q-2 -2 -2 -8l-2 -2t-2 -7q-2 0 -2 -1t-2 -1l-2 -4l-5 -4q-2 -2 -4 -2l-2 -2l-4 -4q-2 0 -4 -2h-4l-4 -2h-6h-4h-6h-5 q-16 4 -24 12q-17 17 -17 35z" />
<glyph unicode="i" horiz-adv-x="575" d="M199 55l157 908q4 20 20.5 31.5t37.5 9.5q20 -4 31.5 -20.5t7.5 -39.5l-160 -905q-4 -16 -17.5 -27.5t-29.5 -11.5h-8q-20 4 -32 20q-9 12 -8 26q0 4 1 9zM401 1212l9 48q4 18 20 30q11 9 24 9q5 0 11 -1q23 -4 34 -20q8 -12 8 -26q0 -5 -1 -11l-8 -45 q-4 -18 -17.5 -29.5t-31.5 -11.5h-9q-20 5 -32 21q-9 12 -8 26q0 5 1 10z" />
<glyph unicode="j" horiz-adv-x="509" d="M-10 -340q0 20 13 33.5t36 13.5h4q27 0 55 23q31 26 35 59l211 1178q2 18 18.5 29.5t36.5 7.5t30.5 -19.5t6.5 -36.5l-209 -1175q-12 -68 -65 -114t-123 -48q-23 0 -36 14.5t-13 34.5zM393 1217l6 47q4 18 21 30q11 8 23 8q5 0 10 -2q23 -4 35 -19q9 -11 9 -26 q0 -5 -1 -10l-11 -45q-2 -18 -15 -29.5t-30 -11.5h-10q-18 4 -30 21q-8 12 -8 26q0 6 1 11z" />
<glyph unicode="k" horiz-adv-x="1146" d="M195 53l235 1333q4 22 20 34q12 8 26 9q6 0 13 -2q20 -4 31.5 -20t7.5 -37l-166 -948l693 588q16 14 36.5 12t32.5 -18q14 -15 14 -35q0 -21 -18 -35l-461 -391l306 -471q12 -16 8 -37t-23 -31q-10 -8 -26 -8q-27 0 -43 22l-297 459l-248 -209q0 -2 -2 -2l-39 -229 q-10 -41 -49 -41h-10q-20 4 -33 20q-9 12 -9 26q0 5 1 11z" />
<glyph unicode="l" horiz-adv-x="509" d="M209 57l235 1334q4 23 21 34q12 8 27 8q5 0 10 -1q20 -4 32 -20q9 -12 10 -28q0 -5 -1 -10l-236 -1333q-4 -18 -17.5 -29.5t-31.5 -11.5h-8q-23 4 -34 20q-8 12 -8 27q0 5 1 10z" />
<glyph unicode="m" horiz-adv-x="1947" d="M195 53l96 545v2l63 358q4 20 20.5 31.5t37.5 7.5q20 -4 31.5 -19t7.5 -36l-13 -80q66 63 149 99t175 38q76 0 140.5 -26.5t111.5 -73.5q49 -49 73 -115q68 96 171.5 154.5t222.5 60.5q76 0 140.5 -26.5t111.5 -73.5t72.5 -110.5t25.5 -135.5q0 -35 -6 -71l-96 -547 q-4 -16 -17.5 -27.5t-32.5 -11.5h-8q-20 4 -31.5 20.5t-7.5 36.5l97 545q2 16 3 28.5t1 26.5q-2 109 -70 177.5t-182 70.5q-63 0 -126 -24.5t-113 -67.5t-86 -100.5t-48 -120.5q0 -2 -1 -3t-1 -3l-96 -547q-6 -33 -37 -39h-8h-2h-7h-4q-20 4 -31.5 20.5t-7.5 36.5l97 545 q0 4 2 6q2 12 3 24.5t1 24.5q-2 109 -69.5 177.5t-184.5 70.5q-66 0 -127.5 -24.5t-112.5 -68.5t-87 -102.5t-48 -123.5l-96 -547q0 -6 -2 -8v-2q-2 -2 -2 -3.5t-2 -3.5q0 -2 -2 -2q0 -2 -4 -6l-3 -2l-4 -4q-2 0 -2 -2q-4 0 -6 -2q-2 0 -2 -2h-6l-2 -2h-6h-4h-6h-2 q-20 4 -33 20q-9 12 -9 26q0 5 1 11z" />
<glyph unicode="n" d="M195 57l96 541v2l61 358q4 20 20.5 31.5t37.5 7.5q23 -4 34 -19t7 -36l-15 -80q66 63 149 99t173 38q76 0 140.5 -26.5t111.5 -73.5t72.5 -109.5t25.5 -136.5q0 -35 -6 -71l-96 -543q-4 -16 -17.5 -27.5t-32.5 -11.5h-6q-20 4 -31.5 20.5t-7.5 36.5l95 541q2 16 3 28.5 t1 26.5q-2 109 -69 177.5t-183 70.5q-63 0 -125 -24.5t-113 -67.5t-87 -101.5t-48 -123.5l-94 -545q0 -2 -1 -4t-1 -4l-2 -2q0 -2 -1 -3t-1 -3l-2 -3q-2 -2 -2 -3t-2 -3q-2 0 -3 -2l-4 -4q-2 0 -2 -2q-4 0 -6 -2q-2 0 -2 -2h-6q-2 -2 -4 -2h-4h-4h-6h-5q-19 4 -31 20 q-8 12 -9 25q0 6 2 12z" />
<glyph unicode="o" horiz-adv-x="1280" d="M143 418q0 23 2 45t7 47q18 102 70 191.5t127 157t167 106.5t191 39q88 0 162.5 -33t127.5 -90q53 -55 82 -132t29 -163q0 -23 -2 -46.5t-6 -47.5l-47 10l47 -10q-18 -102 -70.5 -191.5t-126.5 -156t-166 -105.5t-190 -39h-2q-86 0 -161 31.5t-128 89.5q-53 57 -83 133 t-30 164zM242 418q2 -141 85 -230.5t220 -91.5q78 0 153.5 32t138 89t107 132t58.5 161q4 18 6 37.5t2 38.5q0 70 -22.5 128t-62.5 100t-96.5 66.5t-123.5 24.5h-5q-78 0 -152.5 -32.5t-137 -89t-106.5 -131t-58 -160.5q-6 -37 -6 -74z" />
<glyph unicode="p" horiz-adv-x="1351" d="M195 -358l153 868l80 448q4 20 20 33q12 9 26 9q5 0 11 -1q23 -4 34 -20t7 -39l-22 -127q80 86 183.5 135t215.5 51q90 0 166 -31.5t129 -88.5q55 -55 86 -132t31 -165q0 -20 -2 -43t-6 -45q-18 -102 -70.5 -190.5t-127.5 -153t-167 -102.5t-190 -38q-90 0 -165 31 t-130 88q-18 16 -32.5 35.5t-29.5 42.5l-102 -584q-4 -18 -17.5 -29.5t-31.5 -11.5h-8q-20 4 -33 20q-9 12 -9 28q0 6 1 12zM440 420q2 -137 87 -223t225 -88q76 0 151.5 30.5t139 86t107.5 128t58 156.5q6 37 6 72q-2 141 -86 228t-225 89h-2q-78 0 -152.5 -32.5t-137 -88 t-106.5 -129.5t-59 -155q-6 -41 -6 -74z" />
<glyph unicode="q" horiz-adv-x="1351" d="M123 420q0 49 8 90q18 100 70.5 189t128.5 156t169 105.5t193 38.5q90 0 164 -31.5t129 -88.5q18 -18 32.5 -39t29.5 -43l28 161q4 20 21 33q11 9 26 9q5 0 11 -1q20 -4 33 -20q9 -12 9 -28q0 -5 -1 -11l-236 -1321q-4 -18 -18.5 -29.5t-30.5 -11.5h-8q-23 4 -34 20.5 t-7 39.5l98 555q-78 -86 -183.5 -136.5t-222.5 -52.5q-90 0 -164.5 32t-127.5 89q-55 57 -86 132t-31 163zM180 502l49 -8q-6 -41 -6 -74q2 -137 87 -225.5t222 -90.5q80 0 157 32t140.5 87.5t107.5 129t58 157.5q6 39 6 74q-2 137 -87 225t-222 90q-80 0 -156.5 -31.5 t-140 -87t-107.5 -129t-59 -157.5z" />
<glyph unicode="r" horiz-adv-x="899" d="M197 59l79 451v2l80 446q4 20 20 33q11 9 25 9q5 0 11 -1q20 -4 31.5 -20t7.5 -37l-35 -203q4 4 7 8.5t7 8.5q37 45 82 88t99.5 77.5t118 56t134.5 21.5q20 0 34.5 -13t14.5 -36q0 -20 -14 -34.5t-35 -14.5h-8q-94 0 -171 -48q-81 -50 -146 -118q-33 -35 -59.5 -70.5 t-46 -67.5t-34 -57.5t-22.5 -39.5q-4 -10 -6 -13l-78 -444q-4 -18 -17.5 -29.5t-31.5 -11.5q-6 0 -8 2q-20 4 -32 20q-9 12 -8 25q0 5 1 10z" />
<glyph unicode="s" horiz-adv-x="1007" d="M127 211q16 16 36.5 18t35.5 -12q43 -41 116.5 -80t159.5 -39q59 0 113.5 16.5t95.5 43.5q86 57 96 127q2 11 2 21q0 52 -51 91q-31 25 -82 43.5t-117 30.5l-2 2q-66 12 -121 31.5t-96 50.5t-63 77q-14 30 -14 67q0 18 4 38q10 59 49 109.5t92 85.5t117.5 53.5 t134.5 18.5q98 0 165.5 -38t119.5 -75q16 -10 16 -30.5t-14 -37.5q-14 -16 -35 -20t-35 6q-51 37 -106.5 67.5t-129.5 30.5q-53 0 -102 -15t-88 -40q-76 -51 -86 -115q-6 -31 4 -54.5t39 -45.5q61 -45 182 -68l4 -2q72 -12 131.5 -33.5t102.5 -54.5q45 -33 67 -82 q15 -32 15 -70q0 -20 -4 -42q-10 -63 -51.5 -115.5t-98.5 -89.5q-121 -80 -270 -80q-57 0 -107.5 13.5t-92.5 34t-76.5 44.5t-59.5 49q-13 13 -13 31q0 22 17 39z" />
<glyph unicode="t" horiz-adv-x="819" d="M86 952q0 23 14.5 37.5t36.5 14.5h150l63 391q4 21 20 33q12 9 29 9q5 0 11 -1q20 -4 32.5 -20.5t8.5 -37.5l-64 -374h258q20 0 34.5 -14.5t14.5 -37.5q0 -20 -14 -34.5t-35 -14.5h-274l-133 -733q-2 -4 -2 -14q4 -51 55 -54q23 0 37 -14t14 -35q0 -23 -14.5 -37 t-36.5 -14q-66 0 -111 45t-45 109q0 8 1 15t1 15l131 717h-131q-23 0 -37 14.5t-14 34.5z" />
<glyph unicode="u" d="M170 346q0 35 6 72l96 540q4 20 20 33q12 9 27 9q5 0 11 -1q18 -4 29.5 -20t7.5 -37l-95 -543q-2 -14 -3 -27.5t-1 -25.5q2 -109 68.5 -176.5t181.5 -69.5q63 0 126 25t114 68t87 101t46 124l96 540q3 20 19 32q12 9 27 10q5 0 9 -1q20 -4 32 -20q9 -12 8 -26 q0 -5 -1 -11l-94 -543q-16 -84 -59 -155.5t-106.5 -126t-141.5 -85t-162 -30.5q-76 0 -139.5 26.5t-110.5 73.5t-72.5 109.5t-25.5 134.5z" />
<glyph unicode="v" horiz-adv-x="1191" d="M115 936q-1 6 -1 11q0 13 6 25q9 18 30 23q6 1 11 1q13 0 25 -7q16 -10 21 -31l192 -780l473 795q10 16 30 21q7 2 13 2q13 0 25 -7q16 -11 22 -31q2 -7 1 -13q0 -13 -7 -23l-534 -893q-2 0 -2 -2l-6 -7q0 -2 -1 -2t-1 -2q-2 -2 -3 -2t-3 -2q-2 0 -2.5 -1t-2.5 -1l-8 -4 h-2q-4 -2 -12 -2q-4 0 -6 1t-4 1h-2q-8 4 -11 6h-2l-4 4l-2 2l-6 7q-4 4 -4 8q-4 4 -4 8z" />
<glyph unicode="w" horiz-adv-x="1763" d="M125 936q-2 8 -2 15q0 32 37 44q6 1 11 1q15 0 27 -7q18 -10 21 -31l193 -780l329 553q12 25 41 25q18 2 31.5 -9.5t17.5 -27.5l136 -541l473 795q10 16 30 21q6 2 12 2q12 0 23 -7q15 -11 21 -31q2 -7 2 -13q0 -12 -6 -23l-533 -893q-2 -6 -8 -9q0 -2 -1 -2t-1 -2 q-2 -2 -3 -2t-3 -2q-2 0 -2 -1t-2 -1l-8 -4h-3h-8q-2 -2 -4 -2q-4 0 -5 1t-5 1h-2l-12 6h-2l-5 4l-2 2l-6 7q-4 4 -4 8q-4 8 -4 10l-133 545l-332 -559l-2 -2q0 -4 -6 -7q0 -2 -1 -2t-1 -2q-2 -2 -3 -2t-3 -2q-2 0 -2 -1t-2 -1q-2 -2 -8 -2q0 -2 -3 -2h-6q-2 0 -3 -1t-3 -1 q-4 0 -6 1t-4 1h-2l-12 6h-2l-5 4l-2 2l-6 7q-4 4 -4 8q-4 8 -4 10z" />
<glyph unicode="x" horiz-adv-x="1167" d="M142 55q0 19 14 31l383 420l-232 418q-10 16 -4 35.5t23 29.5q18 10 37.5 5t29.5 -23l213 -389l361 397q13 16 33 17h3q18 0 33 -13q14 -13 16 -33v-4q0 -18 -14 -33l-383 -419l232 -416q10 -18 4 -38t-23 -30q-12 -6 -24 -6q-10 0 -22.5 7t-18.5 20l-213 389l-361 -400 q-16 -16 -36 -16t-33 14q-18 13 -18 37z" />
<glyph unicode="y" horiz-adv-x="1204" d="M115 -318q-2 8 -2 16q0 12 6 23q10 16 28.5 22.5t36.5 -3.5q33 -16 72 -26.5t84 -10.5q78 0 153.5 30.5t137 83t104.5 122t56 147.5l8 47q-66 -59 -148 -95t-174 -36q-72 0 -138.5 24.5t-113.5 71.5t-71.5 109.5t-24.5 134.5q0 37 6 74l94 545q4 18 21 31q11 8 25 8 q6 0 12 -1q20 -4 31.5 -20t7.5 -37l-97 -545q-4 -14 -4 -27.5v-27.5q2 -106 69.5 -175t182.5 -69q63 0 126 24.5t113 67.5t86 101.5t46 124.5l96 545q4 18 20 31q12 8 25 8q5 0 10 -1q19 -4 29 -16q12 -12 12 -27q2 -4 2 -7.5t-2 -6.5l-153 -872q-18 -98 -69.5 -182.5 t-125.5 -147t-164 -99t-188 -36.5q-55 0 -106.5 12t-94.5 35q-18 10 -24 30z" />
<glyph unicode="z" horiz-adv-x="1134" d="M125 45v4q0 2 2 4v6q2 2 2 4t2 5q0 2 1 2t1 2l4 4v2l752 829h-555q-20 0 -34.5 13.5t-14.5 33.5q0 23 14 36.5t35 13.5h665h5h4q4 0 6 -3h4q2 -2 4 -2q2 -2 4 -2l4 -4l2 -2h2l2 -4l4 -4q0 -2 1 -2t1 -2t1 -2t1 -2t1.5 -2t1.5 -2q0 -4 2 -4v-4v-7v-2v-2v-6q-2 -2 -2 -4 t-3 -4q0 -4 -2 -4q0 -4 -2 -4l-2 -4q-2 -2 -2 -4l-751 -828h555q20 0 34.5 -14t14.5 -35q0 -20 -14.5 -34.5t-34.5 -14.5h-666h-2q-2 0 -3 1t-3 1h-4q-2 2 -6 2q-2 2 -4 2q-2 2 -5 2q0 2 -4 2q0 2 -1 2t-1 2l-4 4q-2 0 -2 4q-2 0 -2 1t-2 1q0 4 -2 7v4q-2 0 -2 4v4 q-2 2 -2 6z" />
<glyph unicode="{" horiz-adv-x="983" d="M121 588q10 39 59 39q80 0 135.5 18.5t93 52t62.5 81.5t43 108l45 162q23 80 57.5 144t94 114.5t150.5 88.5t229 64q18 4 28 -5t6 -28q-10 -25 -34 -32q-121 -29 -195 -60.5t-120 -72.5t-71.5 -95.5t-46.5 -130.5l-45 -153q-41 -137 -116.5 -202t-180.5 -93 q45 -16 79 -39t51.5 -56.5t17.5 -83t-21 -116.5l-45 -154q-23 -76 -27.5 -130t18 -95t78.5 -72.5t159 -60.5q8 -4 13 -12.5t1 -20.5q-4 -18 -19.5 -27.5t-31.5 -5.5q-123 27 -192.5 65t-99.5 88t-27 114.5t26 144.5l45 162q18 59 21.5 107t-15 82t-63.5 52.5t-125 18.5 q-51 0 -37 39z" />
<glyph unicode="|" horiz-adv-x="585" d="M252 -238l321 1823q4 18 19.5 31.5t34.5 13.5q18 0 29.5 -13t7.5 -32l-322 -1823q-4 -18 -18.5 -31.5t-32.5 -13.5t-30.5 13.5t-8.5 31.5z" />
<glyph unicode="}" horiz-adv-x="983" d="M115 -252q10 25 35 33q119 29 193.5 60.5t120.5 72.5t70.5 95t47.5 130l45 154q41 137 116.5 201.5t180.5 93.5q-47 16 -80 38.5t-50.5 56.5t-17.5 83t21 117l45 153q20 76 26 130.5t-16.5 95.5t-78.5 72.5t-159 60.5q-8 4 -13 12t-1 20q4 18 19.5 27.5t31.5 5.5 q123 -27 192.5 -64.5t99.5 -88t27 -115t-26 -143.5l-45 -162q-18 -59 -21.5 -107.5t15 -82t63.5 -52t125 -18.5q51 0 37 -39q-10 -39 -59 -39q-80 0 -135.5 -18.5t-93 -52.5t-62.5 -82t-43 -107l-45 -162q-23 -80 -57.5 -144.5t-94 -114.5t-150.5 -88t-228 -65 q-18 -4 -28.5 5.5t-6.5 27.5z" />
<glyph unicode="~" horiz-adv-x="942" d="M174 526q0 12 4 25q29 90 68 122t94 32q29 0 63.5 -13.5t70.5 -29t68.5 -28.5t59.5 -13q35 0 54.5 18t37.5 59q4 10 13.5 19.5t23.5 9.5q16 0 26.5 -9t10.5 -26q0 -12 -4 -24q-29 -90 -68 -122t-94 -32q-29 0 -63.5 13.5t-70.5 28.5t-68.5 28.5t-59.5 13.5 q-35 0 -54.5 -18.5t-37.5 -59.5q-4 -10 -12.5 -19t-24.5 -9t-26.5 9t-10.5 25z" />
<glyph unicode="&#xa1;" horiz-adv-x="516" d="M195 59l182 1028q4 18 17.5 29.5t31.5 11.5h8q23 -4 34 -20t7 -39l-182 -1028q-4 -20 -20.5 -32.5t-36.5 -8.5t-33 21.5t-8 37.5zM422 1346l8 47q4 18 18.5 29.5t30.5 11.5h8q23 -4 34 -20.5t7 -39.5l-8 -47q-4 -20 -20.5 -32.5t-36.5 -8.5t-32.5 20.5t-8.5 39.5z" />
<glyph unicode="&#xa2;" horiz-adv-x="1189" d="M164 555q-12 80 4 168l2 4q18 111 77.5 209t144.5 174t189.5 120t217.5 44h30l52 139q6 16 20 28.5t35 12.5q25 0 37 -17.5t2 -45.5l-49 -131q80 -20 136 -62.5t99 -91.5q14 -18 13 -41q-4 -23 -19.5 -37t-38.5 -14q-25 0 -37 16q-39 45 -85 82t-109 53l-330 -884 q37 -6 74 -7q98 0 186 41t168 109q10 8 19.5 13t21.5 5q18 0 29.5 -14t7.5 -33q-2 -18 -21 -33q-90 -80 -194.5 -131t-239.5 -51h-39.5t-40.5 4l-61 -164q-6 -16 -21.5 -28t-35.5 -12q-25 0 -36 17t-1 46l63 168q-74 27 -130 78t-92 118.5t-48 147.5zM279 727 q-27 -145 29.5 -259t168.5 -163l322 875h-19q-90 0 -173 -35t-150.5 -95.5t-114.5 -142.5t-63 -176v-4z" />
<glyph unicode="&#xa3;" horiz-adv-x="1318" d="M137 27q6 23 33 28l166 37l129 533h-135q-20 0 -31.5 14t-7.5 35q4 20 22.5 34.5t38.5 14.5h135l58 242q29 117 86 211t137 159q72 57 157 88t179 31q150 0 232.5 -55.5t129.5 -134.5q4 -8 7.5 -18.5t-0.5 -20.5q-6 -23 -23.5 -36t-40.5 -13t-37 18q-23 35 -48.5 65.5 t-60 52t-79.5 34t-107 12.5q-74 0 -136 -22.5t-116 -65.5q-127 -102 -174 -303l-59 -244h569q20 0 30.5 -14.5t6.5 -34.5t-21.5 -34.5t-37.5 -14.5h-570l-127 -529h725q20 0 30.5 -14t6.5 -35q-4 -20 -22.5 -33.5t-38.5 -13.5h-985q-25 0 -21 27z" />
<glyph unicode="&#xa5;" horiz-adv-x="1404" d="M115 399q4 23 22.5 39.5t42.5 16.5h316l28 204h-315q-25 0 -39 16.5t-10 39.5q4 25 22.5 41t42.5 16h254l-334 574q-10 16 -2.5 37.5t23.5 31.5q18 14 38.5 11t28.5 -19l359 -616l541 616q14 16 34.5 19.5t36.5 -11.5q16 -10 15.5 -31.5t-15.5 -37.5l-508 -574h258 q25 0 39.5 -16.5t10.5 -40.5q-4 -23 -22.5 -39.5t-43.5 -16.5h-315l-29 -204h315q25 0 39.5 -16.5t9.5 -39.5q-4 -25 -22 -41t-43 -16h-315l-43 -293q-4 -20 -19.5 -34.5t-38.5 -14.5q-20 0 -32.5 14.5t-8.5 34.5l43 293h-315q-25 0 -39 16.5t-10 40.5z" />
<glyph unicode="&#xa8;" horiz-adv-x="1024" d="M283 1305q6 37 35.5 62.5t66.5 25.5t58.5 -26t15.5 -62q-8 -37 -38 -62.5t-67 -25.5t-58 25.5t-13 62.5zM621 1305q6 37 35.5 62.5t66.5 25.5t58.5 -26t15.5 -62q-8 -37 -38 -62.5t-67 -25.5t-58 25.5t-13 62.5z" />
<glyph unicode="&#xa9;" horiz-adv-x="1699" d="M109 713v4q0 152 57 286t157.5 235t236.5 160.5t292 59.5t291 -58.5t234.5 -158.5t156.5 -234.5t57 -285.5v-4q0 -152 -57 -286t-157.5 -235.5t-236.5 -161t-292 -59.5t-291 58.5t-234.5 159t-156.5 234.5t-57 286zM170 713q0 -141 51 -265t142.5 -216.5t215.5 -145.5 t269 -53t270 54t216 147.5t143.5 217t52.5 265.5v4q0 141 -51.5 265t-142.5 216t-215 145.5t-269 53.5t-270 -54.5t-216.5 -147.5t-143.5 -217t-52 -265v-4zM485 725v4q0 78 29 148.5t80 124t118.5 84t147.5 30.5q92 0 153.5 -29.5t110.5 -72.5q18 -14 19 -37 q0 -18 -13.5 -30.5t-31.5 -12.5q-14 0 -33 14q-41 35 -91 60.5t-116 25.5q-61 0 -112.5 -23.5t-89.5 -65.5t-59.5 -97t-21.5 -117v-4q0 -61 23 -117.5t60.5 -97.5t90 -65.5t111.5 -24.5q70 0 120 23.5t97 66.5q4 4 11.5 7t17.5 3q16 0 28.5 -12t12.5 -29q0 -20 -14 -30 q-57 -49 -120 -80t-155 -31q-80 0 -147.5 30.5t-117.5 83t-79 122t-29 149.5z" />
<glyph unicode="&#xab;" horiz-adv-x="1054" d="M115 524q2 18 28 45l344 367q23 23 43 22q18 0 30.5 -12t8.5 -31q-4 -20 -18 -34l-322 -355l195 -358q10 -16 6 -35q-4 -18 -18.5 -30.5t-32.5 -12.5q-25 0 -35 23l-217 366q-14 27 -12 45zM532 524q2 18 29 45l344 367q23 23 43 22q18 0 30.5 -12t8.5 -31 q-4 -20 -18 -34l-322 -355l195 -358l7 -17.5t-1 -17.5q-4 -18 -18.5 -30.5t-32.5 -12.5q-25 0 -35 23l-217 366q-14 27 -13 45z" />
<glyph unicode="&#xad;" horiz-adv-x="835" d="M135 713q0 37 39 37h436q16 0 27.5 -10.5t11.5 -26.5q0 -18 -11 -29.5t-28 -11.5h-436q-39 0 -39 41z" />
<glyph unicode="&#xae;" horiz-adv-x="851" d="M70 1094v2q0 74 27.5 138t75.5 113.5t113.5 78t139.5 28.5q76 0 140.5 -28.5t112.5 -77t75.5 -113t27.5 -137.5v-2q0 -74 -27.5 -138.5t-75.5 -113.5t-113.5 -78t-139.5 -29q-76 0 -140.5 29t-112.5 77t-75.5 112.5t-27.5 138.5zM111 1094q0 -66 23.5 -123.5t66.5 -100.5 t100 -68.5t125 -25.5t125 25.5t99 68.5t66.5 101.5t24.5 124.5v2q0 66 -23.5 123t-66.5 100t-100 68.5t-125 25.5t-125 -25.5t-99 -68.5t-66.5 -101.5t-24.5 -123.5v-2zM295 881q0 -16 16 -17q16 0 17 17v178h108l2 -2q6 -2 21.5 -7.5t32.5 -15.5q16 -10 26 -26.5t10 -42.5 q1 -54 13 -74q4 -10 13 -15.5t15 -5.5h2q2 0 4.5 1t4.5 1q12 4 8 21q-4 10 -17 10l-2 2q-4 4 -4 8q-6 14 -6 52q0 39 -19.5 64.5t-41.5 37.5q-4 0 -6 2q33 16 53 47t20 70q0 53 -36.5 91t-90.5 38h-125h-2h-2q-14 0 -14 -17v-417zM328 1090v192h110q41 0 69 -27.5t28 -68.5 q0 -39 -28 -67.5t-67 -28.5h-6h-106z" />
<glyph unicode="&#xb4;" horiz-adv-x="1024" d="M414 1231q-2 12 4 22l100 191q18 37 51 37q29 0 59.5 -15.5t33.5 -31.5q2 -14 -17 -37l-141 -158q-16 -16 -29 -21.5t-33 -5.5q-10 0 -19 5.5t-9 13.5z" />
<glyph unicode="&#xbb;" horiz-adv-x="1054" d="M141 133q4 20 19 35l321 354l-194 359q-4 10 -7.5 17t1.5 17q4 18 18.5 30.5t32.5 12.5q25 0 35 -22l217 -367q14 -27 12 -45t-29 -45l-344 -366q-23 -23 -43 -23q-18 0 -30.5 12.5t-8.5 30.5zM559 133q4 20 19 35l321 354l-194 359q-10 16 -7 34q4 18 19 30.5t33 12.5 q25 0 34 -22l217 -367q14 -27 13 -45q-2 -18 -29 -45l-344 -366q-23 -23 -43 -23q-18 0 -30.5 12.5t-8.5 30.5z" />
<glyph unicode="&#xbf;" horiz-adv-x="1093" d="M106 371q0 18 2.5 37.5t6.5 40.5q14 86 58 160.5t107.5 132t141.5 93t164 44.5l39 227q4 18 17 29.5t30 11.5q6 0 8 -2q20 -4 31.5 -19.5t7.5 -35.5l-45 -256q0 -2 -2 -5q-2 -18 -15.5 -30.5t-31.5 -12.5q-72 0 -141.5 -27.5t-127 -76.5t-96.5 -113.5t-51 -136.5 q-6 -35 -6 -61q2 -121 77.5 -199t204.5 -80q98 0 188.5 49t149.5 129q12 16 31.5 18.5t36.5 -9.5q16 -10 18 -30t-10 -36q-72 -98 -181.5 -156.5t-232.5 -58.5q-82 0 -150.5 27.5t-119.5 78.5q-109 104 -109 267zM668 1346l8 45q4 18 17.5 29.5t29.5 11.5q4 0 8 -2 q18 -4 30.5 -19.5t8.5 -36.5l-8 -45q-4 -18 -20.5 -30.5t-34.5 -8.5q-20 4 -31.5 20.5t-7.5 35.5z" />
<glyph unicode="&#xc0;" horiz-adv-x="1617" d="M123 35.5q-6 19.5 4 38.5l737 1333q12 27 45 27q18 0 32.5 -11.5t19.5 -29.5l266 -1334q4 -20 -7.5 -37.5t-31.5 -21.5h-10q-18 0 -31.5 11.5t-18.5 29.5l-65 332h-657l-191 -346q-14 -27 -43 -27q-12 0 -25 6q-18 10 -24 29.5zM461 473h581l-153 772zM850 1843 q2 16 32.5 31.5t59.5 15.5q33 0 51 -37l101 -190q6 -10 4 -23q0 -8 -9.5 -13t-19.5 -5q-20 0 -32.5 5t-28.5 22l-142 157q-18 23 -16 37z" />
<glyph unicode="&#xc1;" horiz-adv-x="1617" d="M123 35.5q-6 19.5 4 38.5l737 1333q12 27 45 27q18 0 32.5 -11.5t19.5 -29.5l266 -1334q4 -20 -7.5 -37.5t-31.5 -21.5h-10q-18 0 -31.5 11.5t-18.5 29.5l-65 332h-657l-191 -346q-14 -27 -43 -27q-12 0 -25 6q-18 10 -24 29.5zM461 473h581l-153 772zM831 1640 q-2 12 5 23l100 190q18 37 51 37q29 0 59.5 -15t32.5 -32q2 -14 -16 -37l-141 -157q-16 -16 -29 -21.5t-33 -5.5q-10 0 -19.5 5t-9.5 13z" />
<glyph unicode="&#xc2;" horiz-adv-x="1323" d="M121 35.5q-6 19.5 4 38.5l737 1333q12 27 45 27q18 0 32.5 -11.5t18.5 -29.5l267 -1334q4 -20 -7.5 -37.5t-31.5 -21.5h-10q-18 0 -32 11.5t-18 29.5l-65 332h-658l-190 -346q-14 -27 -43 -27q-12 0 -25 6q-18 10 -24 29.5zM459 473h581l-153 772zM725 1642q2 6 4 11.5 t10 13.5l172 180q16 16 29.5 26.5t32.5 10.5h16q18 0 29.5 -10t23.5 -27l123 -180q8 -14 6 -25q0 -20 -30 -20q-20 0 -33.5 5t-30.5 22l-114 118l-144 -118q-23 -16 -36 -21.5t-33 -5.5q-25 0 -25 20z" />
<glyph unicode="&#xc3;" horiz-adv-x="1617" d="M123 35.5q-6 19.5 4 38.5l737 1333q12 27 45 27q18 0 32.5 -11.5t19.5 -29.5l266 -1334q4 -20 -7.5 -37.5t-31.5 -21.5h-10q-18 0 -31.5 11.5t-18.5 29.5l-65 332h-657l-191 -346q-14 -27 -43 -27q-12 0 -25 6q-18 10 -24 29.5zM461 473h581l-153 772zM684 1640 q2 4 3 12.5t5 12.5q41 90 84 122t98 32q29 0 62 -13.5t66.5 -29t64.5 -28.5t57 -13q35 0 57.5 18.5t45.5 58.5q6 10 16 19.5t25 9.5q16 0 25.5 -9t6.5 -26q0 -12 -8 -24q-41 -90 -84 -122t-98 -32q-29 0 -61.5 13.5t-66.5 29t-64.5 28.5t-57.5 13q-35 0 -57 -18.5t-45 -59.5 q-6 -10 -15.5 -19t-25.5 -9t-25.5 9t-7.5 25z" />
<glyph unicode="&#xc4;" horiz-adv-x="1323" d="M121 35.5q-6 19.5 4 38.5l737 1333q12 27 45 27q18 0 32.5 -11.5t18.5 -29.5l267 -1334q4 -20 -7.5 -37.5t-31.5 -21.5h-10q-18 0 -32 11.5t-18 29.5l-65 332h-658l-190 -346q-14 -27 -43 -27q-12 0 -25 6q-18 10 -24 29.5zM459 473h581l-153 772zM715 1714 q6 37 35.5 62.5t66.5 25.5t58.5 -25.5t15.5 -62.5q-8 -37 -38 -62.5t-67 -25.5t-58 25.5t-13 62.5zM1053 1714q6 37 35.5 62.5t66.5 25.5t58.5 -25.5t15.5 -62.5q-8 -37 -38 -62.5t-67 -25.5t-58 25.5t-13 62.5z" />
<glyph unicode="&#xc5;" horiz-adv-x="1617" d="M182.5 29.5q-6.5 19.5 5.5 38.5l676 1228q-35 23 -54 64t-11 88l2 2q6 37 26.5 69.5t50 57.5t65.5 39t71 14q37 0 68.5 -14t53 -39t32 -57.5t3.5 -69.5l-2 -2q-8 -49 -43.5 -92t-87.5 -66l244 -1222q4 -18 -7 -38t-32 -28q-6 0 -10 -1t-8 -1q-14 0 -25.5 8t-15.5 25 l-68 338h-653l-187 -338q-20 -33 -53 -33q-4 0 -9 1t-9 1q-16 8 -22.5 27.5zM516 471h580l-152 770zM887 1448q-6 -43 20 -70q25 -25 58 -24q31 0 59 16q51 27 57 78l2 2q6 39 -16.5 69.5t-67.5 30.5q-39 0 -71.5 -30.5t-38.5 -69.5z" />
<glyph unicode="&#xc6;" horiz-adv-x="2140" d="M76 51q2 6 6 13.5t8 15.5l1043 1333q12 16 25 24.5t34 8.5h1018q20 0 32.5 -14.5t8.5 -34.5t-20.5 -34.5t-37.5 -14.5h-841l-101 -564h750q20 0 32.5 -14t8.5 -35q-4 -20 -20.5 -34.5t-36.5 -14.5h-750l-102 -575h852q20 0 32.5 -14.5t7.5 -35.5q-4 -20 -20 -34.5 t-37 -14.5h-905q-23 0 -36 15.5t-9 38.5l61 348h-614l-299 -385q-20 -27 -49 -27q-20 0 -32.5 14.5t-8.5 34.5zM541 510h557l147 840h-53z" />
<glyph unicode="&#xc7;" horiz-adv-x="1511" d="M217 735v4q27 152 104.5 287t191.5 236.5t255 160t297 58.5q88 0 159.5 -14.5t130 -41t107.5 -63.5t94 -82q6 -8 11.5 -18.5t1.5 -24.5q-4 -23 -22.5 -38t-41.5 -15q-25 0 -35 14q-76 82 -174 134t-249 52q-129 0 -248 -49t-215.5 -136t-163 -203.5t-90.5 -252.5l-2 -4 q-25 -135 1.5 -252.5t93 -204.5t168 -137.5t230.5 -50.5q147 0 265 50.5t237 148.5q8 6 17.5 11t21.5 5q20 0 33.5 -15t9.5 -36q-2 -12 -8.5 -21.5t-14.5 -15.5q-123 -98 -255 -158.5t-300 -64.5l-151 -225q-12 -18 -24.5 -29.5t-35.5 -11.5q-25 0 -45 16t-16 33q2 6 4 13 t12 18l162 190q-139 12 -245.5 73.5t-175 160t-94 226.5t-1.5 273z" />
<glyph unicode="&#xc8;" horiz-adv-x="1372" d="M217 55l236 1334q4 18 18 29.5t33 11.5h2h735q20 0 34.5 -14.5t14.5 -37.5q0 -20 -14 -34.5t-35 -14.5h-696l-101 -567h594q20 0 34.5 -14.5t14.5 -34.5q0 -23 -14 -37t-35 -14h-612l-100 -566h680q20 0 34.5 -14t14.5 -37q0 -20 -14.5 -34.5t-34.5 -14.5h-736h-2h-2h-8 q-20 4 -32.5 20.5t-8.5 38.5zM786 1843q2 16 33 31.5t60 15.5q33 0 51 -37l100 -190q6 -10 4 -23q0 -8 -9 -13t-19 -5q-20 0 -32.5 5t-29.5 22l-141 157q-18 23 -17 37z" />
<glyph unicode="&#xc9;" horiz-adv-x="1372" d="M217 55l236 1334q4 18 18 29.5t33 11.5h2h735q20 0 34.5 -14.5t14.5 -37.5q0 -20 -14 -34.5t-35 -14.5h-696l-101 -567h594q20 0 34.5 -14.5t14.5 -34.5q0 -23 -14 -37t-35 -14h-612l-100 -566h680q20 0 34.5 -14t14.5 -37q0 -20 -14.5 -34.5t-34.5 -14.5h-736h-2h-2h-8 q-20 4 -32.5 20.5t-8.5 38.5zM856 1640q-2 12 4 23l101 190q18 37 51 37q29 0 59.5 -15t32.5 -32q2 -14 -17 -37l-141 -157q-16 -16 -28.5 -21.5t-32.5 -5.5q-10 0 -19.5 5t-9.5 13z" />
<glyph unicode="&#xca;" horiz-adv-x="1214" d="M217 55l236 1334q4 18 18 29.5t33 11.5h2h735q20 0 34.5 -14.5t14.5 -37.5q0 -20 -14 -34.5t-35 -14.5h-696l-101 -567h594q20 0 34.5 -14.5t14.5 -34.5q0 -23 -14 -37t-35 -14h-612l-100 -566h680q20 0 34.5 -14t14.5 -37q0 -20 -14.5 -34.5t-34.5 -14.5h-736h-2h-2h-8 q-20 4 -32.5 20.5t-8.5 38.5zM707 1642q2 6 4 11.5t10 13.5l172 180q16 16 29.5 26.5t31.5 10.5h17q18 0 29.5 -10t23.5 -27l123 -180q8 -14 6 -25q0 -20 -31 -20q-20 0 -33.5 5t-29.5 22l-115 118l-143 -118q-23 -16 -36 -21.5t-34 -5.5q-25 0 -24 20z" />
<glyph unicode="&#xcb;" horiz-adv-x="1214" d="M217 55l236 1334q4 18 18 29.5t33 11.5h2h735q20 0 34.5 -14.5t14.5 -37.5q0 -20 -14 -34.5t-35 -14.5h-696l-101 -567h594q20 0 34.5 -14.5t14.5 -34.5q0 -23 -14 -37t-35 -14h-612l-100 -566h680q20 0 34.5 -14t14.5 -37q0 -20 -14.5 -34.5t-34.5 -14.5h-736h-2h-2h-8 q-20 4 -32.5 20.5t-8.5 38.5zM696 1714q6 37 36 62.5t67 25.5t58.5 -25.5t14.5 -62.5q-8 -37 -37.5 -62.5t-66.5 -25.5t-58.5 25.5t-13.5 62.5zM1034 1714q6 37 36 62.5t67 25.5t58.5 -25.5t14.5 -62.5q-8 -37 -37.5 -62.5t-66.5 -25.5t-58.5 25.5t-13.5 62.5z" />
<glyph unicode="&#xcc;" horiz-adv-x="561" d="M35 53l235 1333q4 23 20.5 34.5t37.5 6.5q20 -4 32.5 -20t8.5 -37l-236 -1333q-4 -18 -17.5 -29.5t-31.5 -11.5h-8q-23 4 -34 20.5t-7 36.5zM195 1843q2 16 32.5 31.5t59.5 15.5q33 0 51 -37l100 -190q6 -10 4 -23q0 -8 -9 -13t-19 -5q-20 0 -32.5 5t-29.5 22l-141 157 q-18 23 -16 37z" />
<glyph unicode="&#xcd;" horiz-adv-x="561" d="M231 53l236 1333q4 23 20.5 34.5t36.5 6.5q20 -4 32.5 -20t8.5 -37l-235 -1333q-4 -18 -17.5 -29.5t-31.5 -11.5h-9q-23 4 -34 20.5t-7 36.5zM424 1640q-2 12 4 23l100 190q18 37 52 37q29 0 59.5 -15t32.5 -32q2 -14 -17 -37l-141 -157q-16 -16 -28.5 -21.5t-32.5 -5.5 q-10 0 -19.5 5t-9.5 13z" />
<glyph unicode="&#xce;" horiz-adv-x="561" d="M61 53l236 1333q4 23 20.5 34.5t36.5 6.5q20 -4 32.5 -20t8.5 -37l-235 -1333q-4 -18 -17.5 -29.5t-31.5 -11.5h-9q-23 4 -34 20.5t-7 36.5zM162 1642q2 6 4 11.5t10 13.5l172 180q16 16 29.5 26.5t32.5 10.5h16q18 0 29.5 -10t23.5 -27l123 -180q8 -14 6 -25 q0 -20 -30 -20q-20 0 -34 5t-30 22l-115 118l-143 -118q-23 -16 -36 -21.5t-34 -5.5q-25 0 -24 20z" />
<glyph unicode="&#xcf;" horiz-adv-x="561" d="M45 53l236 1333q4 23 20 34.5t37 6.5q20 -4 32.5 -20t8.5 -37l-236 -1333q-4 -18 -17.5 -29.5t-31.5 -11.5h-8q-23 4 -34 20.5t-7 36.5z" />
<glyph unicode="&#xd0;" horiz-adv-x="1662" d="M117 719q6 37 45 37h172l110 630q4 20 21.5 35t38.5 15h268q147 0 268 -56.5t201 -155t114 -229.5t7 -278t-105.5 -278.5t-193.5 -227.5t-256 -152.5t-289 -56.5h-272q-18 2 -29.5 15.5t-7.5 33.5l110 627h-172q-37 0 -30 41zM319 102h218q127 0 247.5 48.5t219 131.5 t167 195.5t91.5 239.5q23 129 -6 240.5t-99 195.5t-173 133t-230 49h-217l-103 -579h164q16 0 26.5 -10.5t6.5 -26.5q-4 -18 -17.5 -29.5t-29.5 -11.5h-164z" />
<glyph unicode="&#xd1;" horiz-adv-x="1617" d="M217 61l234 1328l2 2q0 23 24 41q18 10 38 4t30 -25l659 -1210l209 1188q4 20 20.5 32.5t36.5 8.5q23 -4 34.5 -20.5t6.5 -39.5l-233 -1325q-4 -18 -18.5 -29.5t-30.5 -11.5h-8q-23 2 -37 25q0 4 -4 8l-654 1200l-211 -1192q-4 -18 -17 -29.5t-32 -11.5h-8 q-20 4 -32.5 20.5t-8.5 36.5zM795 1640q2 4 3 12.5t5 12.5q41 90 84 122t98 32q29 0 61.5 -13.5t66.5 -29t64.5 -28.5t57.5 -13q35 0 57.5 18.5t44.5 58.5q6 10 16.5 19.5t24.5 9.5q16 0 25.5 -9t7.5 -26q0 -12 -8 -24q-41 -90 -84 -122t-98 -32q-29 0 -62 13.5t-66.5 29 t-64.5 28.5t-57 13q-35 0 -57.5 -18.5t-45.5 -59.5q-6 -10 -15 -19t-26 -9q-16 0 -25 9t-7 25z" />
<glyph unicode="&#xd2;" horiz-adv-x="1740" d="M150 592q0 66 12 133q27 147 100.5 275t181 224.5t239.5 153t273 56.5q125 0 230.5 -46.5t181.5 -125.5q76 -80 118 -188.5t42 -233.5q0 -66 -12 -133l-50 10l50 -10q-27 -147 -102 -275.5t-182.5 -224.5t-238.5 -151.5t-272 -55.5q-125 0 -230.5 45t-181.5 125 q-78 80 -118.5 188.5t-40.5 233.5zM250 592q0 -106 34.5 -196.5t97 -156t148.5 -103.5t191 -38q119 0 234.5 49.5t211 134.5t161.5 199.5t89 243.5q4 29 7 57.5t3 57.5q0 106 -34.5 196t-97 155.5t-148.5 103.5t-191 38h-4q-119 0 -233.5 -49t-208.5 -135t-160.5 -199.5 t-89.5 -242.5q-4 -29 -7 -57.5t-3 -57.5zM1001 1843q2 16 33 31.5t60 15.5q33 0 51 -37l100 -190q6 -10 4 -23q0 -8 -9 -13t-19 -5q-20 0 -32.5 5t-29.5 22l-141 157q-18 23 -17 37z" />
<glyph unicode="&#xd3;" horiz-adv-x="1740" d="M150 592q0 66 12 133q27 147 100.5 275t181 224.5t239.5 153t273 56.5q125 0 230.5 -46.5t181.5 -125.5q76 -80 118 -188.5t42 -233.5q0 -66 -12 -133l-50 10l50 -10q-27 -147 -102 -275.5t-182.5 -224.5t-238.5 -151.5t-272 -55.5q-125 0 -230.5 45t-181.5 125 q-78 80 -118.5 188.5t-40.5 233.5zM250 592q0 -106 34.5 -196.5t97 -156t148.5 -103.5t191 -38q119 0 234.5 49.5t211 134.5t161.5 199.5t89 243.5q4 29 7 57.5t3 57.5q0 106 -34.5 196t-97 155.5t-148.5 103.5t-191 38h-4q-119 0 -233.5 -49t-208.5 -135t-160.5 -199.5 t-89.5 -242.5q-4 -29 -7 -57.5t-3 -57.5zM924 1640q-2 12 4 23l100 190q18 37 51 37q29 0 59.5 -15t32.5 -32q2 -14 -16 -37l-141 -157q-16 -16 -29 -21.5t-33 -5.5q-10 0 -19 5t-9 13z" />
<glyph unicode="&#xd4;" horiz-adv-x="1740" d="M150 592q0 66 12 133q27 147 100.5 275t181 224.5t239.5 153t273 56.5q125 0 230.5 -46.5t181.5 -125.5q76 -80 118 -188.5t42 -233.5q0 -66 -12 -133l-50 10l50 -10q-27 -147 -102 -275.5t-182.5 -224.5t-238.5 -151.5t-272 -55.5q-125 0 -230.5 45t-181.5 125 q-78 80 -118.5 188.5t-40.5 233.5zM250 592q0 -106 34.5 -196.5t97 -156t148.5 -103.5t191 -38q119 0 234.5 49.5t211 134.5t161.5 199.5t89 243.5q4 29 7 57.5t3 57.5q0 106 -34.5 196t-97 155.5t-148.5 103.5t-191 38h-4q-119 0 -233.5 -49t-208.5 -135t-160.5 -199.5 t-89.5 -242.5q-4 -29 -7 -57.5t-3 -57.5zM854 1642q2 6 4 11.5t10 13.5l172 180q16 16 29.5 26.5t32.5 10.5h16q18 0 29.5 -10t23.5 -27l123 -180q8 -14 6 -25q0 -20 -30 -20q-20 0 -33.5 5t-30.5 22l-114 118l-144 -118q-23 -16 -36 -21.5t-33 -5.5q-25 0 -25 20z" />
<glyph unicode="&#xd5;" horiz-adv-x="1740" d="M150 592q0 66 12 133q27 147 100.5 275t181 224.5t239.5 153t273 56.5q125 0 230.5 -46.5t181.5 -125.5q76 -80 118 -188.5t42 -233.5q0 -66 -12 -133l-50 10l50 -10q-27 -147 -102 -275.5t-182.5 -224.5t-238.5 -151.5t-272 -55.5q-125 0 -230.5 45t-181.5 125 q-78 80 -118.5 188.5t-40.5 233.5zM250 592q0 -106 34.5 -196.5t97 -156t148.5 -103.5t191 -38q119 0 234.5 49.5t211 134.5t161.5 199.5t89 243.5q4 29 7 57.5t3 57.5q0 106 -34.5 196t-97 155.5t-148.5 103.5t-191 38h-4q-119 0 -233.5 -49t-208.5 -135t-160.5 -199.5 t-89.5 -242.5q-4 -29 -7 -57.5t-3 -57.5zM793 1640q2 4 3 12.5t5 12.5q41 90 84 122t98 32q29 0 61.5 -13.5t66.5 -29t64.5 -28.5t57.5 -13q35 0 57.5 18.5t44.5 58.5q6 10 16.5 19.5t24.5 9.5q16 0 25.5 -9t7.5 -26q0 -12 -8 -24q-41 -90 -84 -122t-98 -32q-29 0 -62 13.5 t-66.5 29t-64.5 28.5t-57 13q-35 0 -57.5 -18.5t-45.5 -59.5q-6 -10 -15 -19t-26 -9q-16 0 -25 9t-7 25z" />
<glyph unicode="&#xd6;" horiz-adv-x="1740" d="M150 592q0 66 12 133q27 147 100.5 275t181 224.5t239.5 153t273 56.5q125 0 230.5 -46.5t181.5 -125.5q76 -80 118 -188.5t42 -233.5q0 -66 -12 -133l-50 10l50 -10q-27 -147 -102 -275.5t-182.5 -224.5t-238.5 -151.5t-272 -55.5q-125 0 -230.5 45t-181.5 125 q-78 80 -118.5 188.5t-40.5 233.5zM250 592q0 -106 34.5 -196.5t97 -156t148.5 -103.5t191 -38q119 0 234.5 49.5t211 134.5t161.5 199.5t89 243.5q4 29 7 57.5t3 57.5q0 106 -34.5 196t-97 155.5t-148.5 103.5t-191 38h-4q-119 0 -233.5 -49t-208.5 -135t-160.5 -199.5 t-89.5 -242.5q-4 -29 -7 -57.5t-3 -57.5zM924 1714q6 37 35.5 62.5t66.5 25.5t58.5 -25.5t15.5 -62.5q-8 -37 -38 -62.5t-67 -25.5t-58 25.5t-13 62.5zM1262 1714q6 37 35.5 62.5t66.5 25.5t58.5 -25.5t15.5 -62.5q-8 -37 -38 -62.5t-67 -25.5t-58 25.5t-13 62.5z" />
<glyph unicode="&#xd7;" horiz-adv-x="1269" d="M209 340q2 20 22 37l408 342l-285 340q-6 8 -10 18t0 23q4 23 20.5 37t38.5 14q23 0 37 -18l281 -345l403 347q16 16 39 16q20 0 32.5 -14.5t8.5 -34.5q-2 -10 -8 -19.5t-14 -17.5l-408 -342l285 -340q6 -8 10 -18.5t0 -22.5q-4 -23 -20.5 -37t-38.5 -14q-23 0 -37 18 l-281 344l-403 -346q-20 -16 -39 -16q-20 0 -32.5 14t-8.5 35z" />
<glyph unicode="&#xd8;" horiz-adv-x="1740" d="M154 43q4 20 18 33l166 149q-72 102 -97.5 232.5t1.5 273.5v4q27 147 102.5 281.5t188 237t256 163t307.5 60.5q141 0 249.5 -46.5t186.5 -123.5l164 147q20 16 39 16q18 0 29.5 -12t7.5 -31q-8 -23 -19 -32l-168 -152q72 -100 98.5 -230t-0.5 -274v-4 q-27 -147 -102.5 -281.5t-188 -236.5t-257 -162.5t-306.5 -60.5q-141 0 -249.5 45t-186.5 123l-164 -146q-20 -16 -39 -16q-18 0 -29 12.5t-7 30.5zM350 500.5q21 -109.5 78 -195.5l1020 922q-66 72 -161 112.5t-214 40.5q-133 0 -253 -50t-216 -137t-161.5 -204t-90.5 -250 v-4q-23 -125 -2 -234.5zM475 244q66 -72 161 -113t214 -41q133 0 254 50t217 137.5t161.5 204t90.5 249.5v4q23 123 1 232.5t-77 195.5z" />
<glyph unicode="&#xd9;" horiz-adv-x="1556" d="M190 489q0 25 3.5 49.5t7.5 51.5l141 805q4 20 20.5 32.5t36.5 8.5q23 -4 34 -20.5t7 -39.5l-141 -803q-8 -39 -8 -84q0 -84 28.5 -154.5t81 -121.5t125 -81t160.5 -30q98 0 193.5 38t174.5 104.5t133 155.5t70 190l144 805q4 20 20.5 32.5t36.5 8.5t32.5 -20.5 t8.5 -39.5l-143 -803q-23 -119 -85.5 -223t-152.5 -181t-201.5 -122t-230.5 -45h-2q-106 0 -197.5 37t-156.5 102q-66 66 -103 155t-37 193zM852 1843q2 16 32.5 31.5t59.5 15.5q33 0 51 -37l101 -190q6 -10 4 -23q0 -8 -9.5 -13t-19.5 -5q-20 0 -32.5 5t-28.5 22l-142 157 q-18 23 -16 37z" />
<glyph unicode="&#xda;" horiz-adv-x="1556" d="M190 489q0 25 3.5 49.5t7.5 51.5l141 805q4 20 20.5 32.5t36.5 8.5q23 -4 34 -20.5t7 -39.5l-141 -803q-8 -39 -8 -84q0 -84 28.5 -154.5t81 -121.5t125 -81t160.5 -30q98 0 193.5 38t174.5 104.5t133 155.5t70 190l144 805q4 20 20.5 32.5t36.5 8.5t32.5 -20.5 t8.5 -39.5l-143 -803q-23 -119 -85.5 -223t-152.5 -181t-201.5 -122t-230.5 -45h-2q-106 0 -197.5 37t-156.5 102q-66 66 -103 155t-37 193zM895 1640q-2 12 4 23l100 190q18 37 52 37q29 0 59.5 -15t32.5 -32q2 -14 -17 -37l-141 -157q-16 -16 -28.5 -21.5t-32.5 -5.5 q-10 0 -19.5 5t-9.5 13z" />
<glyph unicode="&#xdb;" horiz-adv-x="1556" d="M190 489q0 25 3.5 49.5t7.5 51.5l141 805q4 20 20.5 32.5t36.5 8.5q23 -4 34 -20.5t7 -39.5l-141 -803q-8 -39 -8 -84q0 -84 28.5 -154.5t81 -121.5t125 -81t160.5 -30q98 0 193.5 38t174.5 104.5t133 155.5t70 190l144 805q4 20 20.5 32.5t36.5 8.5t32.5 -20.5 t8.5 -39.5l-143 -803q-23 -119 -85.5 -223t-152.5 -181t-201.5 -122t-230.5 -45h-2q-106 0 -197.5 37t-156.5 102q-66 66 -103 155t-37 193zM786 1642q2 6 4.5 11.5t10.5 13.5l172 180q16 16 29.5 26.5t31.5 10.5h17q18 0 29.5 -10t23.5 -27l123 -180q8 -14 6 -25 q0 -20 -31 -20q-20 0 -33.5 5t-29.5 22l-115 118l-143 -118q-23 -16 -36.5 -21.5t-33.5 -5.5q-25 0 -25 20z" />
<glyph unicode="&#xdc;" horiz-adv-x="1667" d="M215 489q0 25 3 49.5t7 51.5l142 805q4 20 20 32.5t37 8.5q23 -4 34 -20.5t7 -39.5l-141 -803q-8 -39 -9 -84q0 -84 29 -154.5t81 -121.5t125 -81t161 -30q98 0 193 38t174 104.5t133.5 155.5t70.5 190l143 805q4 20 21 32.5t37 8.5t32.5 -20.5t8.5 -39.5l-144 -803 q-23 -119 -85 -223t-152 -181t-202 -122t-230 -45h-2q-106 0 -197.5 37t-157.5 102q-66 66 -102.5 155t-36.5 193zM772 1714q6 37 36 62.5t66 25.5q37 0 58.5 -25.5t15.5 -62.5q-8 -37 -37.5 -62.5t-66.5 -25.5t-58.5 25.5t-13.5 62.5zM1110 1714q6 37 36 62.5t66 25.5 q37 0 58.5 -25.5t15.5 -62.5q-8 -37 -37.5 -62.5t-66.5 -25.5t-58.5 25.5t-13.5 62.5z" />
<glyph unicode="&#xdd;" horiz-adv-x="1466" d="M121 1393.5q6 19.5 22 29.5q18 10 39 5t31 -23l338 -612l563 620q14 16 34.5 17.5t37.5 -13.5q16 -14 17 -33.5t-13 -35.5l-602 -664l-113 -645q-4 -18 -18.5 -29.5t-30.5 -11.5h-10q-20 4 -32.5 20.5t-8.5 36.5l114 643l-364 658q-10 18 -4 37.5zM717 1640q-2 12 4 23 l100 190q18 37 51 37q29 0 60 -15t33 -32q2 -14 -17 -37l-141 -157q-16 -16 -29 -21.5t-33 -5.5q-10 0 -19 5t-9 13z" />
<glyph unicode="&#xe0;" horiz-adv-x="1175" d="M129 416q0 51 8 92q18 100 69.5 190t125.5 157t166 105.5t190 38.5q88 0 162 -31.5t127 -88.5q37 -41 59 -82l29 161q4 20 19.5 33t35.5 8q20 -4 32.5 -20t8.5 -37l-160 -901q-4 -18 -17 -29.5t-32 -11.5h-8q-20 4 -31.5 20.5t-7.5 36.5l23 131q-78 -86 -180.5 -136 t-219.5 -52q-88 0 -161.5 31.5t-126.5 89.5q-111 117 -111 295zM225 416q2 -139 85 -227.5t218 -90.5q78 0 154 32t138.5 87t106.5 130t58 161q6 39 6 76q-2 139 -84 227t-219 90h-2q-78 0 -152.5 -32.5t-136 -88t-106 -130t-58.5 -158.5q-8 -35 -8 -76zM750 1434 q2 16 32.5 31.5t59.5 15.5q33 0 51 -37l100 -191q6 -10 4 -22q0 -8 -9 -13.5t-19 -5.5q-20 0 -32.5 5.5t-29.5 21.5l-141 158q-18 23 -16 37z" />
<glyph unicode="&#xe1;" horiz-adv-x="1175" d="M129 416q0 51 8 92q18 100 69.5 190t125.5 157t166 105.5t190 38.5q88 0 162 -31.5t127 -88.5q37 -41 59 -82l29 161q4 20 19.5 33t35.5 8q20 -4 32.5 -20t8.5 -37l-160 -901q-4 -18 -17 -29.5t-32 -11.5h-8q-20 4 -31.5 20.5t-7.5 36.5l23 131q-78 -86 -180.5 -136 t-219.5 -52q-88 0 -161.5 31.5t-126.5 89.5q-111 117 -111 295zM225 416q2 -139 85 -227.5t218 -90.5q78 0 154 32t138.5 87t106.5 130t58 161q6 39 6 76q-2 139 -84 227t-219 90h-2q-78 0 -152.5 -32.5t-136 -88t-106 -130t-58.5 -158.5q-8 -35 -8 -76zM588 1231 q-2 12 4 22l100 191q18 37 51 37q29 0 60 -15.5t33 -31.5q2 -14 -17 -37l-141 -158q-16 -16 -29 -21.5t-33 -5.5q-10 0 -19 5.5t-9 13.5z" />
<glyph unicode="&#xe2;" horiz-adv-x="1175" d="M129 416q0 51 8 92q18 100 69.5 190t125.5 157t166 105.5t190 38.5q88 0 162 -31.5t127 -88.5q37 -41 59 -82l29 161q4 20 19.5 33t35.5 8q20 -4 32.5 -20t8.5 -37l-160 -901q-4 -18 -17 -29.5t-32 -11.5h-8q-20 4 -31.5 20.5t-7.5 36.5l23 131q-78 -86 -180.5 -136 t-219.5 -52q-88 0 -161.5 31.5t-126.5 89.5q-111 117 -111 295zM225 416q2 -139 85 -227.5t218 -90.5q78 0 154 32t138.5 87t106.5 130t58 161q6 39 6 76q-2 139 -84 227t-219 90h-2q-78 0 -152.5 -32.5t-136 -88t-106 -130t-58.5 -158.5q-8 -35 -8 -76zM610 1233q2 6 4 11 t11 13l172 181q16 16 29.5 26.5t31.5 10.5h16q18 0 29.5 -10.5t24.5 -26.5l123 -181q8 -14 6 -24q0 -20 -31 -21q-20 0 -33.5 5.5t-29.5 21.5l-115 119l-143 -119q-23 -16 -36.5 -21.5t-33.5 -5.5q-25 0 -25 21z" />
<glyph unicode="&#xe3;" horiz-adv-x="1175" d="M129 416q0 51 8 92q18 100 69.5 190t125.5 157t166 105.5t190 38.5q88 0 162 -31.5t127 -88.5q37 -41 59 -82l29 161q4 20 19.5 33t35.5 8q20 -4 32.5 -20t8.5 -37l-160 -901q-4 -18 -17 -29.5t-32 -11.5h-8q-20 4 -31.5 20.5t-7.5 36.5l23 131q-78 -86 -180.5 -136 t-219.5 -52q-88 0 -161.5 31.5t-126.5 89.5q-111 117 -111 295zM225 416q2 -139 85 -227.5t218 -90.5q78 0 154 32t138.5 87t106.5 130t58 161q6 39 6 76q-2 139 -84 227t-219 90h-2q-78 0 -152.5 -32.5t-136 -88t-106 -130t-58.5 -158.5q-8 -35 -8 -76zM549 1231q2 4 3 12 t5 12q41 90 84 122t98 32q29 0 62 -13.5t66.5 -28.5t64.5 -28.5t57 -13.5q35 0 57.5 18.5t45.5 59.5q6 10 16 19.5t25 9.5q16 0 25 -9.5t7 -25.5q0 -12 -8 -25q-41 -90 -84 -121.5t-98 -31.5q-29 0 -61.5 13t-66.5 28.5t-64.5 29t-57.5 13.5q-35 0 -57 -18.5t-45 -59.5 q-6 -10 -15.5 -19.5t-25.5 -9.5t-25.5 9t-7.5 26z" />
<glyph unicode="&#xe4;" horiz-adv-x="1267" d="M82 416q0 51 8 92q18 100 69.5 190t125 157t166 105.5t190.5 38.5q88 0 162 -31.5t127 -88.5q37 -41 59 -82l29 161q4 20 19.5 33t35.5 8q20 -4 32.5 -20t8.5 -37l-160 -901q-4 -18 -17 -29.5t-32 -11.5h-8q-20 4 -31.5 20.5t-7.5 36.5l23 131q-78 -86 -180.5 -136 t-219.5 -52q-88 0 -161.5 31.5t-126.5 89.5q-111 117 -111 295zM178 416q2 -139 85 -227.5t218 -90.5q78 0 154 32t138.5 87t106.5 130t58 161q6 39 6 76q-2 139 -84 227t-219 90h-2q-78 0 -152.5 -32.5t-136 -88t-106 -130t-58.5 -158.5q-8 -35 -8 -76zM569 1305 q6 37 36 62.5t67 25.5t58.5 -26t14.5 -62q-8 -37 -37.5 -62.5t-66.5 -25.5t-58.5 25.5t-13.5 62.5zM907 1305q6 37 36 62.5t67 25.5t58.5 -26t14.5 -62q-8 -37 -37.5 -62.5t-66.5 -25.5t-58.5 25.5t-13.5 62.5z" />
<glyph unicode="&#xe5;" horiz-adv-x="1175" d="M59 502q18 102 71.5 193t129.5 160t170 109t193 40q117 0 206 -53.5t138 -143.5l24 147q4 23 21 36.5t37 13.5t32.5 -13.5t8.5 -36.5l-160 -905q-4 -20 -20.5 -34.5t-37.5 -14.5q-20 0 -32.5 14.5t-8.5 34.5l27 150q-80 -90 -187.5 -144.5t-224.5 -54.5q-98 0 -178 40 t-132 108.5t-73.5 159.5t-3.5 194zM158 502q-14 -84 3 -158t59 -128t104.5 -86t140.5 -32t151.5 32t134 86t103.5 128t57 158t-2 157.5t-57 129t-104.5 87t-141.5 31.5t-151.5 -31.5t-134 -87t-104.5 -129t-58 -157.5zM498 1325v2q6 37 27.5 70t51 57.5t65.5 38.5t71 14 q37 0 68.5 -14t53 -38.5t30.5 -57.5t3 -70v-2q-6 -35 -26.5 -67.5t-51 -57t-67.5 -39t-74 -14.5q-35 0 -65.5 14.5t-52 39t-30.5 57t-3 67.5zM586 1325q-6 -35 16.5 -64.5t61.5 -29.5q45 0 77.5 29.5t38.5 64.5v2q8 39 -14.5 69.5t-67.5 30.5q-39 0 -71.5 -30.5t-40.5 -69.5 v-2z" />
<glyph unicode="&#xe6;" horiz-adv-x="1953" d="M104 418q0 51 9 92q18 102 69 191.5t126 157t167 106.5t191 39q88 0 162.5 -32t127.5 -89q37 -41 60 -82l28 162q4 20 19.5 32.5t36.5 8.5q20 -4 32.5 -20.5t8.5 -37.5l-29 -158q82 98 194.5 157t241.5 61q90 0 166 -32t131 -89t86 -134t31 -165q0 -14 -1 -26.5t-3 -27.5 q0 -4 -1 -6t-1 -6q-4 -16 -17.5 -26.5t-29.5 -10.5h-832q-4 -16 -4 -30.5v-30.5q0 -70 22.5 -128t64.5 -101t99.5 -68t129.5 -25q102 0 198 50.5t164 136.5q14 16 33.5 18t36.5 -12q16 -12 18 -31.5t-12 -36.5q-80 -100 -194.5 -161.5t-243.5 -61.5h-3q-90 0 -165.5 32 t-130.5 89q-49 49 -76 108l-33 -190q-4 -18 -17.5 -29.5t-31.5 -11.5h-8q-20 4 -31.5 20.5t-7.5 36.5l22 131q-78 -86 -181 -136t-220 -52q-88 0 -163 31.5t-128 89.5q-111 117 -111 297zM201 418q0 -70 22.5 -128.5t62.5 -100.5t96 -66.5t124 -24.5q78 0 153.5 32t138 88 t107.5 131t60 161q6 39 6 76q-2 141 -85 229t-220 90h-2q-78 0 -153 -32.5t-137.5 -89t-106.5 -131t-58 -158.5q-8 -35 -8 -76zM1104 582h760v4q0 70 -23.5 128t-64.5 101t-99.5 67.5t-128.5 24.5t-138.5 -24.5t-127.5 -67.5t-105.5 -103.5t-72.5 -129.5z" />
<glyph unicode="&#xe7;" horiz-adv-x="1169" d="M166 549v4q20 111 78.5 209t143.5 174t189.5 120t217.5 44q68 0 122 -13.5t98 -37t79.5 -53t64.5 -62.5q12 -12 8 -37q-4 -23 -20.5 -37t-38.5 -14q-10 0 -19.5 3t-13.5 9q-53 59 -122.5 103.5t-176.5 44.5q-90 0 -173 -35t-150.5 -95.5t-113.5 -142.5t-63 -176l-2 -4 q-16 -94 3.5 -177t66.5 -144.5t119 -96.5t162 -35q102 0 191 43t163 107q8 6 17.5 11t19.5 5q18 0 30.5 -15t8.5 -34q-1 -19 -17 -31q-90 -78 -188 -126t-223 -54l-150 -225q-12 -18 -25.5 -29.5t-35.5 -11.5q-25 0 -44.5 16.5t-15.5 32.5q0 10 15 31l164 190 q-98 12 -174 60.5t-125.5 121t-69 163.5t-0.5 194z" />
<glyph unicode="&#xe8;" horiz-adv-x="1196" d="M125 420q0 23 2 45t6 47q18 102 70.5 191.5t128.5 156t170 105.5t196 39q90 0 165 -32t130 -89t86 -133t31 -164q0 -14 -1 -26.5t-3 -27.5q0 -4 -1 -6t-1 -6q-4 -16 -17.5 -27.5t-29.5 -11.5h-830q-4 -16 -4 -30.5v-30.5q0 -70 22.5 -128.5t64.5 -100t99.5 -66.5 t127.5 -25q104 0 200.5 50.5t161.5 134.5q14 16 33.5 18t36.5 -12q16 -12 18 -30.5t-12 -35.5q-78 -100 -193.5 -161.5t-244.5 -61.5h-2q-90 0 -165 32t-130 89t-85 133t-30 164zM254 582h758v4q-2 139 -87.5 228t-226.5 91q-72 0 -139 -24.5t-126.5 -67.5t-105.5 -102.5 t-73 -128.5zM686 1434q2 16 33 31.5t59 15.5q33 0 51 -37l101 -191q6 -10 4 -22q0 -8 -9.5 -13.5t-19.5 -5.5q-20 0 -32.5 5.5t-28.5 21.5l-142 158q-18 23 -16 37z" />
<glyph unicode="&#xe9;" horiz-adv-x="1196" d="M125 420q0 23 2 45t6 47q18 102 70.5 191.5t128.5 156t170 105.5t196 39q90 0 165 -32t130 -89t86 -133t31 -164q0 -14 -1 -26.5t-3 -27.5q0 -4 -1 -6t-1 -6q-4 -16 -17.5 -27.5t-29.5 -11.5h-830q-4 -16 -4 -30.5v-30.5q0 -70 22.5 -128.5t64.5 -100t99.5 -66.5 t127.5 -25q104 0 200.5 50.5t161.5 134.5q14 16 33.5 18t36.5 -12q16 -12 18 -30.5t-12 -35.5q-78 -100 -193.5 -161.5t-244.5 -61.5h-2q-90 0 -165 32t-130 89t-85 133t-30 164zM254 582h758v4q-2 139 -87.5 228t-226.5 91q-72 0 -139 -24.5t-126.5 -67.5t-105.5 -102.5 t-73 -128.5zM569 1231q-2 12 4 22l101 191q18 37 51 37q29 0 59.5 -15.5t32.5 -31.5q2 -14 -16 -37l-142 -158q-16 -16 -28.5 -21.5t-32.5 -5.5q-10 0 -19.5 5.5t-9.5 13.5z" />
<glyph unicode="&#xea;" horiz-adv-x="1196" d="M125 420q0 23 2 45t6 47q18 102 70.5 191.5t128.5 156t170 105.5t196 39q90 0 165 -32t130 -89t86 -133t31 -164q0 -14 -1 -26.5t-3 -27.5q0 -4 -1 -6t-1 -6q-4 -16 -17.5 -27.5t-29.5 -11.5h-830q-4 -16 -4 -30.5v-30.5q0 -70 22.5 -128.5t64.5 -100t99.5 -66.5 t127.5 -25q104 0 200.5 50.5t161.5 134.5q14 16 33.5 18t36.5 -12q16 -12 18 -30.5t-12 -35.5q-78 -100 -193.5 -161.5t-244.5 -61.5h-2q-90 0 -165 32t-130 89t-85 133t-30 164zM254 582h758v4q-2 139 -87.5 228t-226.5 91q-72 0 -139 -24.5t-126.5 -67.5t-105.5 -102.5 t-73 -128.5zM571 1233q2 6 4.5 11t10.5 13l172 181q16 16 29.5 26.5t31.5 10.5h17q18 0 29.5 -10.5t23.5 -26.5l123 -181q8 -14 6 -24q0 -20 -31 -21q-20 0 -33.5 5.5t-29.5 21.5l-115 119l-143 -119q-23 -16 -36.5 -21.5t-33.5 -5.5q-25 0 -25 21z" />
<glyph unicode="&#xeb;" horiz-adv-x="1247" d="M119 420q0 23 2 45t6 47q18 102 70.5 191.5t128 156t170 105.5t196.5 39q90 0 165 -32t130 -89t86 -133t31 -164q0 -14 -1 -26.5t-3 -27.5q0 -4 -1 -6t-1 -6q-4 -16 -17.5 -27.5t-29.5 -11.5h-830q-4 -16 -4 -30.5v-30.5q0 -70 22.5 -128.5t64.5 -100t99.5 -66.5 t126.5 -25q104 0 200.5 50.5t162.5 134.5q14 16 33.5 18t36.5 -12q16 -12 18 -30.5t-12 -35.5q-78 -100 -194 -161.5t-245 -61.5h-2q-90 0 -164.5 32t-130.5 89q-55 57 -84.5 133t-29.5 164zM248 582h758v4q-2 139 -87.5 228t-226.5 91q-72 0 -139.5 -24.5t-126.5 -67.5 t-105.5 -102.5t-72.5 -128.5zM555 1305q6 37 36 62.5t66 25.5q37 0 58.5 -26t15.5 -62q-8 -37 -37.5 -62.5t-66.5 -25.5t-58.5 25.5t-13.5 62.5zM893 1305q6 37 35.5 62.5t66.5 25.5t58.5 -26t15.5 -62q-8 -37 -38 -62.5t-66 -25.5q-37 0 -58.5 25.5t-13.5 62.5z" />
<glyph unicode="&#xec;" horiz-adv-x="509" d="M10 55l158 906q4 20 20.5 31.5t36.5 8.5q20 -4 31.5 -20t7.5 -39l-160 -903q-4 -16 -17 -27.5t-30 -11.5h-8q-20 4 -31.5 20.5t-7.5 34.5zM127 1434q2 16 32.5 31.5t59.5 15.5q33 0 51 -37l101 -191q6 -10 4 -22q0 -8 -9.5 -13.5t-19.5 -5.5q-20 0 -32.5 5.5t-28.5 21.5 l-142 158q-18 23 -16 37z" />
<glyph unicode="&#xed;" horiz-adv-x="509" d="M211 55l158 906q4 20 20.5 31.5t36.5 8.5q20 -4 31.5 -20t7.5 -39l-160 -903q-4 -16 -17.5 -27.5t-29.5 -11.5h-8q-20 4 -31.5 20.5t-7.5 34.5zM362 1231q-2 12 5 22l100 191q18 37 51 37q29 0 59.5 -15.5t32.5 -31.5q2 -14 -16 -37l-141 -158q-16 -16 -29 -21.5 t-33 -5.5q-10 0 -19.5 5.5t-9.5 13.5z" />
<glyph unicode="&#xee;" horiz-adv-x="509" d="M37 55l158 906q4 20 20 31.5t37 8.5q20 -4 31.5 -20t7.5 -39l-160 -903q-4 -16 -17.5 -27.5t-29.5 -11.5h-8q-20 4 -31.5 20.5t-7.5 34.5zM57 1233q2 6 4 11t11 13l172 181q16 16 29.5 26.5t31.5 10.5h17q18 0 29 -10.5t24 -26.5l123 -181q8 -14 6 -24q0 -20 -31 -21 q-20 0 -33.5 5.5t-29.5 21.5l-115 119l-143 -119q-23 -16 -36.5 -21.5t-33.5 -5.5q-25 0 -25 21z" />
<glyph unicode="&#xef;" horiz-adv-x="575" d="M199 55l157 908q4 20 20.5 31.5t37.5 9.5q20 -4 31.5 -20.5t7.5 -39.5l-160 -905q-4 -16 -17.5 -27.5t-29.5 -11.5h-8q-20 4 -31.5 20.5t-7.5 34.5zM201 1305q6 37 35.5 62.5t66.5 25.5t58.5 -26t15.5 -62q-8 -37 -38 -62.5t-67 -25.5t-58 25.5t-13 62.5zM539 1305 q6 37 35.5 62.5t66.5 25.5t58.5 -26t15.5 -62q-8 -37 -38 -62.5t-67 -25.5t-58 25.5t-13 62.5z" />
<glyph unicode="&#xf0;" horiz-adv-x="1286" d="M168 520q20 111 76.5 203t136.5 156.5t175 100.5t192 36q125 0 202.5 -38t136.5 -91l-227 426l-272 -127q-12 -6 -25 -6q-18 0 -29.5 14t-7.5 33q6 27 37 41l260 116l-28 54q-4 6 -6.5 16t-0.5 21q4 20 21.5 34.5t40.5 14.5q16 0 25.5 -8.5t15.5 -18.5l33 -65l190 90 q14 6 27 6q18 0 29.5 -14.5t7.5 -32.5q-6 -27 -37 -41l-180 -82l163 -330q31 -59 53.5 -117.5t35 -118t13.5 -125t-12 -139.5q-18 -106 -72.5 -202.5t-137 -170t-188 -116.5t-226.5 -43q-111 0 -198 42t-142 113.5t-77.5 167t-4.5 201.5zM276 514q-14 -82 3.5 -158.5 t61.5 -135t114.5 -94.5t160.5 -36q92 0 174 35t146.5 94.5t108 136t59.5 162.5q14 84 -6.5 158t-68.5 129t-120.5 88t-165.5 33q-92 0 -169.5 -32t-139 -87t-102.5 -131t-56 -162z" />
<glyph unicode="&#xf1;" d="M195 57l96 541v2l61 358q4 20 20.5 31.5t37.5 7.5q23 -4 34 -19t7 -36l-15 -80q66 63 149 99t173 38q76 0 140.5 -26.5t111.5 -73.5t72.5 -109.5t25.5 -136.5q0 -35 -6 -71l-96 -543q-4 -16 -17.5 -27.5t-32.5 -11.5h-6q-20 4 -31.5 20.5t-7.5 36.5l95 541q2 16 3 28.5 t1 26.5q-2 109 -69 177.5t-183 70.5q-63 0 -125 -24.5t-113 -67.5t-87 -101.5t-48 -123.5l-94 -545q0 -2 -1 -4t-1 -4l-2 -2q0 -2 -1 -3t-1 -3l-2 -3q-2 -2 -2 -3t-2 -3q-2 0 -3 -2l-4 -4q-2 0 -2 -2q-4 0 -6 -2q-2 0 -2 -2h-6q-2 -2 -4 -2h-4h-4h-6h-5q-20 4 -31.5 20.5 t-6.5 36.5zM553 1231q2 4 3 12t5 12q41 90 84 122t98 32q29 0 62 -13.5t66.5 -28.5t64.5 -28.5t57 -13.5q35 0 57.5 18.5t45.5 59.5q6 10 16 19.5t25 9.5q16 0 25 -9.5t7 -25.5q0 -12 -8 -25q-41 -90 -84 -121.5t-98 -31.5q-29 0 -61.5 13t-66.5 28.5t-64.5 29t-57.5 13.5 q-35 0 -57 -18.5t-45 -59.5q-6 -10 -15.5 -19.5t-25.5 -9.5t-25.5 9t-7.5 26z" />
<glyph unicode="&#xf2;" horiz-adv-x="1310" d="M119 418q0 23 2 45t6 47q18 102 70.5 191.5t127 157t167 106.5t190.5 39q88 0 163 -33t128 -90q53 -55 81.5 -132t28.5 -163q0 -23 -2 -46.5t-6 -47.5l-47 10l47 -10q-18 -102 -70.5 -191.5t-126 -156t-165.5 -105.5t-191 -39h-2q-86 0 -160.5 31.5t-128.5 89.5 q-53 57 -82.5 133t-29.5 164zM217 418q2 -141 85 -230.5t220 -91.5q78 0 154 32t138.5 89t106.5 132t58 161q4 18 6 37.5t2 38.5q0 70 -22.5 128t-62.5 100t-96 66.5t-124 24.5h-4q-78 0 -152.5 -32.5t-137 -89t-106.5 -131t-59 -160.5q-6 -37 -6 -74zM827 1434 q2 16 33 31.5t60 15.5q33 0 51 -37l100 -191q6 -10 4 -22q0 -8 -9 -13.5t-19 -5.5q-20 0 -33 5.5t-29 21.5l-141 158q-18 23 -17 37z" />
<glyph unicode="&#xf3;" horiz-adv-x="1310" d="M119 418q0 23 2 45t6 47q18 102 70.5 191.5t127 157t167 106.5t190.5 39q88 0 163 -33t128 -90q53 -55 81.5 -132t28.5 -163q0 -23 -2 -46.5t-6 -47.5l-47 10l47 -10q-18 -102 -70.5 -191.5t-126 -156t-165.5 -105.5t-191 -39h-2q-86 0 -160.5 31.5t-128.5 89.5 q-53 57 -82.5 133t-29.5 164zM217 418q2 -141 85 -230.5t220 -91.5q78 0 154 32t138.5 89t106.5 132t58 161q4 18 6 37.5t2 38.5q0 70 -22.5 128t-62.5 100t-96 66.5t-124 24.5h-4q-78 0 -152.5 -32.5t-137 -89t-106.5 -131t-59 -160.5q-6 -37 -6 -74zM541 1231q-2 12 4 22 l100 191q18 37 51 37q29 0 59.5 -15.5t32.5 -31.5q2 -14 -16 -37l-141 -158q-16 -16 -29 -21.5t-33 -5.5q-10 0 -19 5.5t-9 13.5z" />
<glyph unicode="&#xf4;" horiz-adv-x="1310" d="M119 418q0 23 2 45t6 47q18 102 70.5 191.5t127 157t167 106.5t190.5 39q88 0 163 -33t128 -90q53 -55 81.5 -132t28.5 -163q0 -23 -2 -46.5t-6 -47.5l-47 10l47 -10q-18 -102 -70.5 -191.5t-126 -156t-165.5 -105.5t-191 -39h-2q-86 0 -160.5 31.5t-128.5 89.5 q-53 57 -82.5 133t-29.5 164zM217 418q2 -141 85 -230.5t220 -91.5q78 0 154 32t138.5 89t106.5 132t58 161q4 18 6 37.5t2 38.5q0 70 -22.5 128t-62.5 100t-96 66.5t-124 24.5h-4q-78 0 -152.5 -32.5t-137 -89t-106.5 -131t-59 -160.5q-6 -37 -6 -74zM600 1233q2 6 4 11 t10 13l172 181q16 16 29.5 26.5t32.5 10.5h16q18 0 29.5 -10.5t24.5 -26.5l122 -181q8 -14 7 -24q0 -20 -31 -21q-20 0 -33.5 5.5t-30.5 21.5l-114 119l-144 -119q-23 -16 -36 -21.5t-33 -5.5q-25 0 -25 21z" />
<glyph unicode="&#xf5;" horiz-adv-x="1310" d="M119 418q0 23 2 45t6 47q18 102 70.5 191.5t127 157t167 106.5t190.5 39q88 0 163 -33t128 -90q53 -55 81.5 -132t28.5 -163q0 -23 -2 -46.5t-6 -47.5l-47 10l47 -10q-18 -102 -70.5 -191.5t-126 -156t-165.5 -105.5t-191 -39h-2q-86 0 -160.5 31.5t-128.5 89.5 q-53 57 -82.5 133t-29.5 164zM217 418q2 -141 85 -230.5t220 -91.5q78 0 154 32t138.5 89t106.5 132t58 161q4 18 6 37.5t2 38.5q0 70 -22.5 128t-62.5 100t-96 66.5t-124 24.5h-4q-78 0 -152.5 -32.5t-137 -89t-106.5 -131t-59 -160.5q-6 -37 -6 -74zM453 1231q2 4 3 12 t5 12q41 90 84 122t98 32q29 0 61.5 -13.5t66.5 -28.5t64.5 -28.5t57.5 -13.5q35 0 57.5 18.5t44.5 59.5q6 10 16.5 19.5t24.5 9.5q16 0 25.5 -9.5t7.5 -25.5q0 -12 -8 -25q-41 -90 -84 -121.5t-98 -31.5q-29 0 -62 13t-66.5 28.5t-64.5 29t-57 13.5q-35 0 -57.5 -18.5 t-45.5 -59.5q-6 -10 -15 -19.5t-26 -9.5q-16 0 -25 9t-7 26z" />
<glyph unicode="&#xf6;" horiz-adv-x="1280" d="M143 418q0 23 2 45t7 47q18 102 70 191.5t127 157t167 106.5t191 39q88 0 162.5 -33t127.5 -90q53 -55 82 -132t29 -163q0 -23 -2 -46.5t-6 -47.5l-47 10l47 -10q-18 -102 -70.5 -191.5t-126.5 -156t-166 -105.5t-190 -39h-2q-86 0 -161 31.5t-128 89.5q-53 57 -83 133 t-30 164zM242 418q2 -141 85 -230.5t220 -91.5q78 0 153.5 32t138 89t107 132t58.5 161q4 18 6 37.5t2 38.5q0 70 -22.5 128t-62.5 100t-96.5 66.5t-123.5 24.5h-5q-78 0 -152.5 -32.5t-137 -89t-106.5 -131t-58 -160.5q-6 -37 -6 -74zM575 1305q6 37 36 62.5t67 25.5 t58.5 -26t15.5 -62q-8 -37 -38 -62.5t-67 -25.5t-58.5 25.5t-13.5 62.5zM913 1305q6 37 36 62.5t67 25.5t58.5 -26t15.5 -62q-8 -37 -38 -62.5t-67 -25.5t-58.5 25.5t-13.5 62.5z" />
<glyph unicode="&#xf7;" horiz-adv-x="1269" d="M139 549q-6 -20 3.5 -34.5t29.5 -14.5h909q20 0 38 14t28 35q4 20 -7.5 34.5t-31.5 14.5h-909q-20 0 -38 -14.5t-22 -34.5zM436 137l10 35q10 35 41 58.5t66 23.5t51.5 -23.5t5.5 -58.5l-10 -35q-10 -35 -40 -58.5t-64 -23.5q-35 0 -52.5 23.5t-7.5 58.5zM670 926l10 35 q10 35 39.5 58t64.5 23t52.5 -23.5t7.5 -57.5l-10 -35q-10 -35 -41 -58.5t-66 -23.5t-51.5 23.5t-5.5 58.5z" />
<glyph unicode="&#xf8;" horiz-adv-x="1310" d="M123 47q4 18 16 31l123 106q-49 74 -67.5 165t0.5 196v4q18 111 76.5 209t143.5 174t191.5 120t222.5 44q100 0 181.5 -33t138.5 -92l117 106q20 16 41 17q39 0 34 -39q-4 -18 -18 -31l-125 -111q51 -72 69.5 -164t0.5 -196v-4q-18 -111 -76.5 -209t-143.5 -174 t-191.5 -120t-223.5 -44q-100 0 -181 33t-141 90l-114 -100q-20 -16 -41 -17q-39 0 -33 39zM300 392q13 -73 48 -132l723 633q-49 51 -114.5 79.5t-147.5 28.5q-92 0 -177 -35.5t-152.5 -96t-114 -142.5t-62.5 -174v-4q-16 -84 -3 -157zM391 203q47 -51 113.5 -79t148.5 -28 q92 0 177 36t153 96.5t114 142.5t62 174v4q14 84 1 156.5t-48 132.5z" />
<glyph unicode="&#xf9;" d="M170 346q0 35 6 72l96 540q4 20 20.5 33t37.5 8q18 -4 29.5 -20t7.5 -37l-95 -543q-2 -14 -3 -27.5t-1 -25.5q2 -109 68.5 -176.5t181.5 -69.5q63 0 126 25t114 68t87 101t46 124l96 540q4 20 19.5 32.5t35.5 8.5t31.5 -20t7.5 -37l-94 -543q-16 -84 -59 -155.5 t-106.5 -126t-141.5 -85t-162 -30.5q-76 0 -139.5 26.5t-110.5 73.5t-72.5 109.5t-25.5 134.5zM621 1434q2 16 32.5 31.5t59.5 15.5q33 0 51 -37l100 -191q6 -10 4 -22q0 -8 -9 -13.5t-19 -5.5q-20 0 -32.5 5.5t-29.5 21.5l-141 158q-18 23 -16 37z" />
<glyph unicode="&#xfa;" d="M170 346q0 35 6 72l96 540q4 20 20.5 33t37.5 8q18 -4 29.5 -20t7.5 -37l-95 -543q-2 -14 -3 -27.5t-1 -25.5q2 -109 68.5 -176.5t181.5 -69.5q63 0 126 25t114 68t87 101t46 124l96 540q4 20 19.5 32.5t35.5 8.5t31.5 -20t7.5 -37l-94 -543q-16 -84 -59 -155.5 t-106.5 -126t-141.5 -85t-162 -30.5q-76 0 -139.5 26.5t-110.5 73.5t-72.5 109.5t-25.5 134.5zM629 1231q-2 12 4 22l100 191q18 37 51 37q29 0 59.5 -15.5t33.5 -31.5q2 -14 -17 -37l-141 -158q-16 -16 -29 -21.5t-33 -5.5q-10 0 -19 5.5t-9 13.5z" />
<glyph unicode="&#xfb;" d="M170 346q0 35 6 72l96 540q4 20 20.5 33t37.5 8q18 -4 29.5 -20t7.5 -37l-95 -543q-2 -14 -3 -27.5t-1 -25.5q2 -109 68.5 -176.5t181.5 -69.5q63 0 126 25t114 68t87 101t46 124l96 540q4 20 19.5 32.5t35.5 8.5t31.5 -20t7.5 -37l-94 -543q-16 -84 -59 -155.5 t-106.5 -126t-141.5 -85t-162 -30.5q-76 0 -139.5 26.5t-110.5 73.5t-72.5 109.5t-25.5 134.5zM535 1233q2 6 4 11t10 13l172 181q16 16 29.5 26.5t31.5 10.5h17q18 0 29.5 -10.5t23.5 -26.5l123 -181q8 -14 6 -24q0 -20 -31 -21q-20 0 -33.5 5.5t-29.5 21.5l-115 119 l-143 -119q-23 -16 -36 -21.5t-34 -5.5q-25 0 -24 21z" />
<glyph unicode="&#xfc;" d="M170 346q0 35 6 72l96 540q4 20 20.5 33t37.5 8q18 -4 29.5 -20t7.5 -37l-95 -543q-2 -14 -3 -27.5t-1 -25.5q2 -109 68.5 -176.5t181.5 -69.5q63 0 126 25t114 68t87 101t46 124l96 540q4 20 19.5 32.5t35.5 8.5t31.5 -20t7.5 -37l-94 -543q-16 -84 -59 -155.5 t-106.5 -126t-141.5 -85t-162 -30.5q-76 0 -139.5 26.5t-110.5 73.5t-72.5 109.5t-25.5 134.5zM494 1305q6 37 35.5 62.5t66.5 25.5t58.5 -26t15.5 -62q-8 -37 -38 -62.5t-67 -25.5t-58 25.5t-13 62.5zM831 1305q6 37 36 62.5t67 25.5t58.5 -26t15.5 -62q-8 -37 -38 -62.5 t-67 -25.5t-58.5 25.5t-13.5 62.5z" />
<glyph unicode="&#xfd;" horiz-adv-x="1204" d="M115 -317.5q-6 20.5 4 38.5q10 16 28.5 22.5t36.5 -3.5q33 -16 72 -26.5t84 -10.5q78 0 153.5 30.5t137 83t104.5 122t56 147.5l8 47q-66 -59 -148 -95t-174 -36q-72 0 -138.5 24.5t-113.5 71.5t-71.5 109.5t-24.5 134.5q0 37 6 74l94 545q4 18 20.5 30.5t37.5 7.5 q20 -4 31.5 -20t7.5 -37l-97 -545q-4 -14 -4 -27.5v-27.5q2 -106 69.5 -175t182.5 -69q63 0 126 24.5t113 67.5t86 101.5t46 124.5l96 545q4 18 20.5 30.5t34.5 7.5q19 -4 29 -16q12 -12 12 -27q4 -8 0 -14l-153 -872q-18 -98 -69.5 -182.5t-125.5 -147t-164 -99t-188 -36.5 q-55 0 -106.5 12t-94.5 35q-18 10 -24 30.5zM639 1231q-2 12 4 22l100 191q18 37 52 37q29 0 59.5 -15.5t32.5 -31.5q2 -14 -17 -37l-141 -158q-16 -16 -28.5 -21.5t-32.5 -5.5q-10 0 -19.5 5.5t-9.5 13.5z" />
<glyph unicode="&#xff;" horiz-adv-x="1204" d="M115 -317.5q-6 20.5 4 38.5q10 16 28.5 22.5t36.5 -3.5q33 -16 72 -26.5t84 -10.5q78 0 153.5 30.5t137 83t104.5 122t56 147.5l8 47q-66 -59 -148 -95t-174 -36q-72 0 -138.5 24.5t-113.5 71.5t-71.5 109.5t-24.5 134.5q0 37 6 74l94 545q4 18 20.5 30.5t37.5 7.5 q20 -4 31.5 -20t7.5 -37l-97 -545q-4 -14 -4 -27.5v-27.5q2 -106 69.5 -175t182.5 -69q63 0 126 24.5t113 67.5t86 101.5t46 124.5l96 545q4 18 20.5 30.5t34.5 7.5q19 -4 29 -16q12 -12 12 -27q4 -8 0 -14l-153 -872q-18 -98 -69.5 -182.5t-125.5 -147t-164 -99t-188 -36.5 q-55 0 -106.5 12t-94.5 35q-18 10 -24 30.5zM467 1305q6 37 35.5 62.5t66.5 25.5t58.5 -26t15.5 -62q-8 -37 -38 -62.5t-66 -25.5q-37 0 -58.5 25.5t-13.5 62.5zM805 1305q6 37 35.5 62.5t66.5 25.5t58.5 -26t15.5 -62q-8 -37 -38 -62.5t-66 -25.5q-37 0 -58.5 25.5 t-13.5 62.5z" />
<glyph unicode="&#x152;" horiz-adv-x="2359" d="M76 727q27 150 104.5 283t188 231t247 155.5t281.5 57.5q98 0 184 -28.5t156 -79t119 -122t78 -157.5l57 317q4 20 20.5 35t36.5 15h738q23 0 34 -14.5t7 -35.5q-4 -23 -20.5 -37t-39.5 -14h-686l-100 -567h600q20 0 32.5 -14.5t8.5 -36.5q-4 -20 -20.5 -34.5 t-37.5 -14.5h-600l-100 -566h686q23 0 34 -14t7 -37q-4 -20 -20.5 -34.5t-38.5 -14.5h-742q-16 2 -27.5 15.5t-7.5 33.5l60 338q-59 -86 -134 -157.5t-163 -123t-184.5 -79t-194.5 -27.5q-145 0 -261 57.5t-191.5 155.5t-106.5 230t-4 284zM176 727q-23 -131 4 -245.5 t92.5 -198.5t164 -133.5t220.5 -49.5q119 0 233 49.5t209 133.5t161.5 198.5t91.5 245.5q23 133 -4 246.5t-91.5 197.5t-162 132.5t-215.5 48.5q-123 0 -239 -48.5t-211 -132.5t-162.5 -197.5t-90.5 -246.5z" />
<glyph unicode="&#x153;" horiz-adv-x="2160" d="M119 422q0 23 2 45t6 47q18 102 70.5 191.5t127 157t167 106.5t190.5 39q88 0 163 -33t128 -90q72 -74 96 -185q39 68 92 123.5t117.5 95t137.5 63.5t151 24q90 0 165.5 -32t131.5 -89q55 -57 85.5 -134t30.5 -165q0 -14 -1 -26.5t-3 -27.5q0 -4 -1 -6t-1 -6 q-4 -16 -17 -26.5t-30 -10.5h-831q-4 -16 -4 -30.5v-30.5q0 -70 22.5 -128t64.5 -101t99 -68t129 -25q102 0 198.5 50.5t163.5 136.5q14 16 34 18t36 -12q16 -12 18.5 -31.5t-12.5 -36.5q-80 -100 -194.5 -161.5t-243.5 -61.5h-2q-90 0 -166 32t-131 89q-74 74 -102 184 q-37 -68 -90.5 -123t-116 -95t-133 -62.5t-144.5 -22.5h-2q-86 0 -160.5 32t-128.5 89q-53 57 -82.5 133t-29.5 164zM217 422q2 -141 85 -230.5t220 -91.5q78 0 154 32t138.5 89.5t106.5 132t58 160.5q4 18 6 37.5t2 38.5q0 70 -22.5 128t-62.5 100t-96 66.5t-124 24.5h-4 q-78 0 -152.5 -32.5t-137 -89t-106.5 -131t-59 -160.5q-6 -37 -6 -74zM1122 582h760v4q0 70 -23.5 128t-64.5 101t-99 67.5t-128 24.5t-138.5 -24.5t-128 -67.5t-105.5 -103.5t-73 -129.5z" />
<glyph unicode="&#x178;" horiz-adv-x="1466" d="M121 1393.5q6 19.5 22 29.5q18 10 39 5t31 -23l338 -612l563 620q14 16 34.5 17.5t37.5 -13.5q16 -14 17 -33.5t-13 -35.5l-602 -664l-113 -645q-4 -18 -18.5 -29.5t-30.5 -11.5h-10q-20 4 -32.5 20.5t-8.5 36.5l114 643l-364 658q-10 18 -4 37.5zM504 1649q4 31 29.5 52 t54.5 21q31 0 48 -21t13 -52q-6 -29 -30.5 -50.5t-55.5 -21.5t-48 21.5t-11 50.5zM846 1649q4 31 29.5 52t54.5 21q31 0 48 -21t13 -52q-6 -29 -30.5 -50.5t-55.5 -21.5t-48 21.5t-11 50.5z" />
<glyph unicode="&#x2c6;" horiz-adv-x="1024" d="M289 1233q2 6 4 11t10 13l172 181q16 16 29.5 26.5t32.5 10.5h16q18 0 29.5 -10.5t23.5 -26.5l123 -181q8 -14 6 -24q0 -20 -30 -21q-20 0 -34 5.5t-30 21.5l-115 119l-143 -119q-23 -16 -36 -21.5t-34 -5.5q-25 0 -24 21z" />
<glyph unicode="&#x2dc;" horiz-adv-x="1024" d="M217 1231q2 4 3 12t5 12q41 90 84 122t99 32q29 0 61.5 -13.5t66 -28.5t64.5 -28.5t57 -13.5q35 0 57.5 18.5t45.5 59.5q6 10 16 19.5t25 9.5q16 0 25.5 -9.5t7.5 -25.5q0 -12 -9 -25q-41 -90 -84 -121.5t-98 -31.5q-29 0 -61.5 13t-66.5 28.5t-64.5 29t-57.5 13.5 q-35 0 -57 -18.5t-45 -59.5q-6 -10 -15.5 -19.5t-25.5 -9.5t-25.5 9t-7.5 26z" />
<glyph unicode="&#x2000;" horiz-adv-x="945" />
<glyph unicode="&#x2001;" horiz-adv-x="1890" />
<glyph unicode="&#x2002;" horiz-adv-x="945" />
<glyph unicode="&#x2003;" horiz-adv-x="1890" />
<glyph unicode="&#x2004;" horiz-adv-x="630" />
<glyph unicode="&#x2005;" horiz-adv-x="472" />
<glyph unicode="&#x2006;" horiz-adv-x="315" />
<glyph unicode="&#x2007;" horiz-adv-x="315" />
<glyph unicode="&#x2008;" horiz-adv-x="236" />
<glyph unicode="&#x2009;" horiz-adv-x="378" />
<glyph unicode="&#x200a;" horiz-adv-x="105" />
<glyph unicode="&#x2010;" horiz-adv-x="835" d="M135 713q0 37 39 37h436q16 0 27.5 -10.5t11.5 -26.5q0 -18 -11 -29.5t-28 -11.5h-436q-39 0 -39 41z" />
<glyph unicode="&#x2011;" horiz-adv-x="835" d="M135 713q0 37 39 37h436q16 0 27.5 -10.5t11.5 -26.5q0 -18 -11 -29.5t-28 -11.5h-436q-39 0 -39 41z" />
<glyph unicode="&#x2012;" horiz-adv-x="835" d="M135 713q0 37 39 37h436q16 0 27.5 -10.5t11.5 -26.5q0 -18 -11 -29.5t-28 -11.5h-436q-39 0 -39 41z" />
<glyph unicode="&#x2013;" horiz-adv-x="1081" d="M141 608q4 23 21.5 38.5t40.5 15.5h704q23 0 36 -15.5t9 -38.5t-22.5 -38t-40.5 -15h-705q-23 0 -35 15.5t-8 37.5z" />
<glyph unicode="&#x2014;" horiz-adv-x="1839" d="M143 608q4 23 23.5 38.5t42.5 15.5h1462q23 0 34 -15.5t7 -38.5q-6 -23 -25.5 -38t-41.5 -15h-1463q-23 0 -34 15.5t-5 37.5z" />
<glyph unicode="&#x2018;" horiz-adv-x="471" d="M168 1372q-8 29 7 48.5t44 19.5t52.5 -19.5t31.5 -48.5l8 -43q6 -31 -6 -48t-35 -24q8 -53 38 -90t93 -67q19 -11 23 -27t-5 -23.5t-20 -7.5q-14 0 -51 18.5t-72 47.5q-33 29 -56 78t-42 135z" />
<glyph unicode="&#x2019;" horiz-adv-x="471" d="M125 1073q4 16 22 27q63 31 93 67.5t39 89.5q-23 6 -35.5 23.5t-5.5 48.5l8 43q8 29 31.5 48.5t52.5 19.5t44 -19.5t7 -48.5l-10 -51q-18 -86 -42 -135t-57 -78q-35 -29 -71.5 -47.5t-50.5 -18.5q-10 0 -19.5 7.5t-5.5 23.5z" />
<glyph unicode="&#x201a;" horiz-adv-x="471" />
<glyph unicode="&#x201c;" horiz-adv-x="839" d="M168 1110l10 51q18 86 42 135.5t56 77.5q35 29 72 47.5t51 18.5q10 0 19.5 -7.5t5.5 -23.5t-23 -27q-63 -31 -92.5 -67.5t-38.5 -89.5q23 -6 35 -23.5t6 -48.5l-8 -43q-8 -29 -31.5 -48.5t-52.5 -19.5t-44 19.5t-7 48.5zM537 1110l10 51q18 86 41.5 135.5t56.5 77.5 q35 29 72 47.5t51 18.5q10 0 19.5 -7.5t5.5 -23.5t-23 -27q-63 -31 -93 -67.5t-38 -89.5q23 -6 35 -23.5t6 -48.5l-8 -43q-8 -29 -32 -48.5t-52 -19.5q-29 0 -44.5 19.5t-6.5 48.5z" />
<glyph unicode="&#x201d;" horiz-adv-x="839" d="M125 1073q4 16 22 27q63 31 93 67.5t39 89.5q-23 6 -35.5 23.5t-5.5 48.5l8 43q8 29 31.5 48.5t52.5 19.5t44 -19.5t7 -48.5l-10 -51q-18 -86 -42 -135t-57 -78q-35 -29 -71.5 -47.5t-50.5 -18.5q-10 0 -19.5 7.5t-5.5 23.5zM494 1073q4 16 22 27q63 31 93 67.5t38 89.5 q-23 6 -35 23.5t-6 48.5l8 43q8 29 32 48.5t52 19.5q29 0 44.5 -19.5t7.5 -48.5l-11 -51q-18 -86 -41.5 -135t-56.5 -78q-35 -29 -72 -47.5t-51 -18.5q-10 0 -19 7.5t-5 23.5z" />
<glyph unicode="&#x201e;" horiz-adv-x="839" d="M115 -168q4 16 22 27q63 31 93 67.5t38 89.5q-23 6 -35 23.5t-6 48.5l9 43q8 29 31.5 48.5t51.5 19.5q29 0 44.5 -19.5t7.5 -48.5l-11 -51q-18 -86 -41.5 -135t-56.5 -78q-35 -29 -71.5 -47.5t-51.5 -18.5q-10 0 -19 7.5t-5 23.5zM483 -168q4 16 23 27q63 31 93 67.5 t38 89.5q-23 6 -35 23.5t-6 48.5l8 43q8 29 31.5 48.5t52.5 19.5t44.5 -19.5t6.5 -48.5l-10 -51q-18 -86 -41.5 -135t-56.5 -78q-35 -29 -72 -47.5t-51 -18.5q-10 0 -19.5 7.5t-5.5 23.5z" />
<glyph unicode="&#x2022;" horiz-adv-x="962" d="M252 719l2 4q8 51 38 97t72 81t92 54.5t99 19.5t91 -19.5t70.5 -54.5t41 -81t4.5 -97l-2 -4q-10 -53 -38 -98.5t-70 -80t-92 -54t-101 -19.5q-53 0 -95 19.5t-70 54t-40 80t-2 98.5z" />
<glyph unicode="&#x2026;" horiz-adv-x="1392" d="M182 119q8 49 46 83t89 34q53 0 79 -34t18 -83q-10 -51 -49 -85t-93 -34q-51 0 -75.5 34t-14.5 85zM676 119q8 49 46 83t89 34q53 0 78.5 -34t17.5 -83q-10 -51 -49 -85t-92 -34q-51 0 -75.5 34t-14.5 85zM1169 119q8 49 46 83t90 34q53 0 78.5 -34t17.5 -83 q-10 -51 -49 -85t-92 -34q-51 0 -76 34t-15 85z" />
<glyph unicode="&#x202f;" horiz-adv-x="378" />
<glyph unicode="&#x2039;" horiz-adv-x="636" d="M115 526q2 18 28 45l344 367q23 23 43 23q18 0 30.5 -12.5t8.5 -30.5q-4 -20 -18 -35l-322 -355l195 -358q10 -16 6 -35q-4 -18 -18.5 -30.5t-32.5 -12.5q-25 0 -35 23l-217 366q-14 27 -12 45z" />
<glyph unicode="&#x203a;" horiz-adv-x="636" d="M141 135q4 20 19 35l321 354l-194 359q-10 16 -6 35q4 18 18.5 30.5t32.5 12.5q25 0 35 -23l217 -367q14 -27 12 -45t-29 -45l-344 -366q-23 -23 -43 -23q-18 0 -30.5 12.5t-8.5 30.5z" />
<glyph unicode="&#x205f;" horiz-adv-x="472" />
<glyph unicode="&#x2122;" horiz-adv-x="1413" d="M45 1415q0 20 21 21h415q20 0 21 -21q0 -23 -21 -22h-190l-96 -555q-4 -18 -23 -19h-2q-23 4 -18 25l96 549h-182q-20 0 -21 22zM555 842l102 573q4 18 23 19q10 0 20 -11l164 -303l275 305q6 8 16 9h4q23 -4 19 -25l-103 -573q-4 -18 -20 -19h-4q-20 4 -17 25l88 501 l-245 -274q-6 -6 -17 -6h-2q-12 0 -18 12l-150 275l-90 -514q-4 -18 -22 -19h-5q-10 2 -14 9.5t-4 15.5z" />
<glyph unicode="&#x25fc;" horiz-adv-x="993" d="M0 0v993h993v-993h-993z" />
</font>
</defs>
</svg>
