<?xml version="1.0" standalone="no"?>
<!DOCTYPE svg PUBLIC "-//W3C//DTD SVG 1.1//EN" "http://www.w3.org/Graphics/SVG/1.1/DTD/svg11.dtd" >
<svg xmlns="http://www.w3.org/2000/svg">
<metadata></metadata>
<defs>
<font id="quicksandbook" horiz-adv-x="1255" >
<font-face units-per-em="2048" ascent="1638" descent="-410" />
<missing-glyph horiz-adv-x="614" />
<glyph horiz-adv-x="2048" />
<glyph horiz-adv-x="2048" />
<glyph unicode="&#xd;" horiz-adv-x="614" />
<glyph unicode=" "  horiz-adv-x="614" />
<glyph unicode="&#x09;" horiz-adv-x="614" />
<glyph unicode="&#xa0;" horiz-adv-x="614" />
<glyph unicode="!" horiz-adv-x="516" d="M190 49v49q0 20 14.5 34.5t35.5 14.5q23 0 37 -14t14 -35v-49q0 -20 -14.5 -34.5t-36.5 -14.5q-20 0 -35 14.5t-15 34.5zM190 356v1028q0 20 14.5 35t35.5 15q23 0 37 -14.5t14 -35.5v-1028q0 -23 -14.5 -37t-36.5 -14q-20 0 -35 14.5t-15 36.5z" />
<glyph unicode="&#x22;" horiz-adv-x="839" d="M143 944l62 440q8 53 57 54h39q33 0 33 -35q0 -10 -3 -22.5t-7 -26.5l-117 -412q-12 -37 -35 -37q-14 0 -23.5 8.5t-5.5 30.5zM512 944l61 440q8 53 58 54h39q33 0 32 -35q0 -10 -3 -22.5t-7 -26.5l-117 -412q-12 -37 -34 -37q-14 0 -23.5 8.5t-5.5 30.5z" />
<glyph unicode="#" horiz-adv-x="1433" d="M92 430q0 20 14.5 34.5t34.5 14.5h224l84 484h-226q-20 0 -34.5 13t-14.5 34q0 20 14.5 34.5t34.5 14.5h242l57 338q6 45 51 45q27 0 38.5 -18.5t6.5 -41.5l-55 -323h424l57 338q6 45 52 45q27 0 38 -18.5t7 -41.5l-56 -323h205q20 0 34.5 -13.5t14.5 -33.5t-14 -34.5 t-35 -14.5h-221l-84 -484h223q20 0 34.5 -13t14.5 -34q0 -20 -14 -34.5t-35 -14.5h-239l-60 -346q-6 -45 -51 -45q-27 0 -38 18.5t-7 40.5l57 332h-424l-59 -346q-6 -45 -51 -45q-27 0 -38 18.5t-7 40.5l57 332h-207q-20 0 -34.5 13.5t-14.5 33.5zM463 479h424l84 484h-424z " />
<glyph unicode="$" horiz-adv-x="1294" d="M125 244q0 20 15.5 35.5t35.5 15.5q14 0 23.5 -5t13.5 -9q86 -80 182.5 -127.5t216.5 -59.5v584q-115 25 -197.5 59.5t-135 81.5t-77 106.5t-24.5 137.5t32 144.5t89 115.5t136 79t173 32v77q0 20 14.5 35t34.5 15t35 -14.5t15 -35.5v-81q111 -10 195.5 -46t168.5 -98 q14 -10 21.5 -20.5t7.5 -26.5q0 -23 -15.5 -37t-37.5 -14q-10 0 -18.5 2t-18.5 12q-76 59 -151 91t-157 42v-573q233 -49 338 -141.5t105 -241.5q0 -82 -33 -149.5t-91 -118t-138 -80t-176 -31.5v-160q0 -20 -14.5 -34.5t-35.5 -14.5q-20 0 -34.5 14.5t-14.5 34.5v162 q-135 10 -245.5 59.5t-215.5 139.5q-23 18 -22 43zM283 1071q0 -53 14 -95t51 -78t101.5 -63.5t162.5 -52.5v559q-74 -2 -135 -23.5t-104 -58t-66.5 -85t-23.5 -103.5zM702 92q76 2 138.5 23.5t107.5 58.5t68.5 87.5t23.5 109.5q0 53 -15 96t-54 78t-103.5 62.5t-165.5 49.5 v-565z" />
<glyph unicode="%" horiz-adv-x="1687" d="M113 1079v4q0 72 22.5 138.5t64.5 117t100 81t130 30.5q70 0 128 -29.5t99 -81t63.5 -117t22.5 -135.5v-4q0 -72 -22.5 -138t-64.5 -117.5t-100 -81t-130 -29.5t-129 29.5t-98 80t-63.5 116t-22.5 136.5zM219 1083q0 -61 16.5 -112t46 -88t67.5 -57.5t81 -20.5 q45 0 83 21.5t65.5 58.5t43 87t15.5 107v4q0 59 -16.5 110.5t-46 88.5t-67.5 58.5t-81 21.5q-45 0 -83 -21.5t-65.5 -59.5t-43 -88t-15.5 -106v-4zM299 35q0 16 8 26l998 1358q16 23 38 23q18 0 32 -12.5t14 -30.5q0 -16 -9 -27l-997 -1358q-16 -23 -39 -22 q-18 0 -31.5 12.5t-13.5 30.5zM944 346v4q0 72 22.5 138.5t64.5 116.5t100.5 81t130.5 31q70 0 128 -30t99 -81t63.5 -116.5t22.5 -135.5v-4q0 -72 -22.5 -138.5t-64.5 -117.5t-100.5 -80.5t-130.5 -29.5t-129 29.5t-98 79.5t-63.5 115.5t-22.5 137.5zM1051 350 q0 -61 16 -112.5t46 -88t68 -57t81 -20.5q45 0 82.5 21.5t65.5 58t43 87t15 107.5v4q0 59 -16 110.5t-46 88.5t-68 58.5t-81 21.5q-45 0 -82.5 -21.5t-65.5 -59.5t-43 -88t-15 -106v-4z" />
<glyph unicode="&#x26;" horiz-adv-x="1425" d="M100 469q0 119 55.5 220.5t147.5 166.5q-90 96 -90 231q0 72 27.5 135.5t74.5 110.5t109.5 74t134.5 27t134.5 -27t109.5 -74t74.5 -110.5t27.5 -135.5q0 -20 -14 -34.5t-37 -14.5q-20 0 -34.5 14.5t-14.5 34.5q0 51 -19.5 96.5t-53.5 78t-78 52t-95 19.5t-95 -19.5 t-78 -52t-53.5 -77.5t-19.5 -97q0 -61 29 -113t76 -85q14 -10 19 -26.5t-3 -33.5q-2 -12 -18 -24q-8 -6 -17 -8q-90 -47 -144 -133t-54 -195q0 -76 28.5 -143.5t78.5 -117.5t118 -79t143 -29q76 0 143.5 29t118 79t79 117.5t28.5 143.5q0 39 -10 84q-16 4 -31.5 4h-30.5 q-98 0 -151 -19.5t-78 -43.5q-25 -25 -33 -52.5t-8 -52.5q0 -16 2 -26.5t4 -16.5q4 -23 -5 -40t-28 -23q-6 -2 -14 -2q-39 0 -49 34q-2 2 -6 22.5t-4 51.5q0 37 13 85t58 89q43 43 116 68.5t183 25.5h36t36 -4h12h6h15q35 6 57 23q12 12 20.5 27.5t8.5 48.5v23t-4 30 q-6 20 5 37.5t32 21.5q23 4 39 -7t22 -30q6 -43 6 -75q4 -51 -16.5 -91t-53.5 -63q-31 -20 -59 -33q10 -51 10 -96q0 -96 -36.5 -182t-100 -149.5t-149.5 -100.5t-183 -37q-96 0 -182 37t-149.5 100.5t-100.5 149.5t-37 182z" />
<glyph unicode="'" horiz-adv-x="471" d="M143 944l62 440q8 53 57 54h39q33 0 33 -35q0 -10 -3 -22.5t-7 -26.5l-117 -412q-12 -37 -35 -37q-14 0 -23.5 8.5t-5.5 30.5z" />
<glyph unicode="(" horiz-adv-x="880" d="M145 621q0 162 22.5 305t76.5 258q51 113 140 184.5t216 71.5q23 0 39 -17.5t16 -40.5t-16 -40t-39 -17q-88 -2 -147.5 -48t-106.5 -142q-43 -94 -64.5 -227.5t-21.5 -286.5q0 -154 21.5 -287t64.5 -228q47 -96 106.5 -143t147.5 -47q23 0 39 -17.5t16 -39.5 q0 -25 -16 -41.5t-39 -16.5h-4q-125 0 -214 71.5t-138 184.5q-53 113 -76 257.5t-23 306.5z" />
<glyph unicode=")" horiz-adv-x="880" d="M123 -141q0 23 16.5 40t38.5 17q88 0 147.5 47t106.5 143q43 94 64.5 227.5t21.5 287.5t-21.5 286.5t-64.5 227.5q-47 96 -106.5 142t-147.5 48q-23 0 -39 17.5t-16 39.5q0 23 16.5 40.5t38.5 17.5q127 0 216 -72t141 -184q53 -115 75.5 -258.5t22.5 -304.5 q0 -162 -22.5 -306.5t-75.5 -257.5q-49 -113 -138.5 -184.5t-214.5 -71.5h-4q-23 0 -39 16.5t-16 41.5z" />
<glyph unicode="*" horiz-adv-x="880" d="M156 995q0 14 9 24.5t19 14.5l211 101l-211 100q-29 14 -28 39q0 16 12 28.5t29 14.5q10 0 16 -3t16 -9l187 -127l-17 223q-2 18 10.5 31.5t30.5 13.5t30.5 -13.5t10.5 -31.5l-16 -223l186 127q18 12 33 12q16 0 28.5 -13.5t12.5 -29.5t-9 -25.5t-20 -13.5l-211 -100 l211 -101q10 -4 19.5 -13t9.5 -26q0 -16 -12.5 -29.5t-28.5 -13.5q-14 0 -33 13l-186 127l16 -224q2 -18 -10 -31.5t-31 -13.5q-18 0 -30.5 13.5t-10.5 31.5l17 224l-187 -127q-18 -12 -32 -13q-16 0 -28.5 13.5t-12.5 29.5z" />
<glyph unicode="+" horiz-adv-x="1269" d="M131 717q0 29 20.5 49t49.5 20h374v375q0 29 19.5 48.5t48.5 19.5t49.5 -19.5t20.5 -48.5v-375h374q29 0 48.5 -20.5t19.5 -48.5q0 -29 -19.5 -48.5t-48.5 -19.5h-374v-375q0 -29 -20.5 -49t-49.5 -20t-48.5 20t-19.5 49v375h-374q-29 0 -49.5 19.5t-20.5 48.5z" />
<glyph unicode="," horiz-adv-x="471" d="M111 -184q0 16 16 26q55 31 77.5 68t18.5 90q-23 6 -39 23.5t-16 48.5v43q0 29 19.5 48t48.5 19t48 -19.5t19 -47.5v-52q0 -86 -13.5 -135t-41.5 -78q-29 -29 -60.5 -47t-46.5 -18q-10 0 -20 7.5t-10 23.5z" />
<glyph unicode="-" horiz-adv-x="835" d="M135 713q0 37 39 37h436q16 0 27.5 -10.5t11.5 -26.5q0 -18 -11 -29.5t-28 -11.5h-436q-39 0 -39 41z" />
<glyph unicode="." horiz-adv-x="471" d="M168 102q0 43 29.5 73t72.5 30t73 -30t30 -73t-30 -72.5t-73 -29.5t-72.5 29.5t-29.5 72.5z" />
<glyph unicode="/" horiz-adv-x="864" d="M160 30.5q-8 18.5 0 39.5l559 1327q10 18 27.5 26.5t37.5 -0.5q20 -8 28.5 -26.5t-1.5 -38.5l-559 -1327q-12 -31 -45 -31q-15 0 -21 2q-18 10 -26 28.5z" />
<glyph unicode="0" horiz-adv-x="1454" d="M133 717q0 145 36 273t101 229q66 96 157 155.5t202 59.5t202 -59.5t156 -155.5q66 -100 102.5 -228.5t36.5 -273.5t-36.5 -273.5t-102.5 -226.5t-157 -157.5t-201 -59.5q-111 0 -202 59.5t-157 157.5t-101.5 226t-35.5 274zM233 717q0 -133 33 -247t88 -198 q55 -82 126 -127t149 -45t147.5 45t126.5 127q55 84 89 198t34 247t-34 246.5t-89 197.5q-117 172 -274 172q-78 0 -149 -43t-126 -129q-55 -84 -88 -197.5t-33 -246.5z" />
<glyph unicode="1" horiz-adv-x="686" d="M71 1224.5q5 18.5 23 28.5l277 168q16 10 36.5 4t30.5 -22q8 -18 6 -37v-1317q0 -20 -13 -34.5t-36 -14.5q-20 0 -34.5 14.5t-14.5 34.5v1239l-203 -119q-12 -8 -24 -8q-29 0 -43 25q-10 20 -5 38.5z" />
<glyph unicode="2" horiz-adv-x="1208" d="M94.5 51q-0.5 21 16.5 37l669 604q59 55 91 126t32 149q0 66 -24.5 129t-71.5 116q-53 59 -125 90t-147 31q-68 0 -132.5 -23.5t-117.5 -70.5l-70 -63q-16 -16 -36.5 -15.5t-33.5 17.5q-16 16 -15 36.5t17 32.5l70 66q68 59 150 90t168 31q94 0 184 -38t160 -116 q63 -68 92.5 -148.5t29.5 -164.5q0 -96 -37.5 -186.5t-115.5 -162.5l-574 -518h678q20 0 34.5 -14t14.5 -37q0 -20 -14 -34.5t-35 -14.5h-798h-9q-24 0 -36 14q-14 16 -14.5 37z" />
<glyph unicode="3" horiz-adv-x="1249" d="M150 178q0 21 16 37q14 16 34.5 16t37.5 -16q57 -55 126.5 -83t143.5 -28t144.5 28t127.5 83q57 57 85 128t28 144q0 74 -27.5 144.5t-85.5 126.5q-55 57 -125.5 84.5t-144.5 27.5q-25 0 -41 21h-2q-16 16 -16 36.5t16 37.5l356 366h-549q-23 0 -37 14.5t-14 36.5 q0 23 14.5 37.5t36.5 14.5h670q23 0 37 -14.5t14 -37.5q0 -14 -6 -22q-4 -10 -10 -17l-371 -380q68 -14 130.5 -46t115.5 -86q72 -72 106.5 -160.5t34.5 -183.5q0 -94 -35.5 -183t-107.5 -161t-161 -107.5t-183 -35.5q-92 0 -181 36t-161 107q-16 14 -16 35z" />
<glyph unicode="4" horiz-adv-x="1359" d="M102.5 337.5q-2.5 20.5 12.5 37.5l829 1032l2 2q14 16 33.5 18.5t36.5 -12.5q6 -4 9 -11t7 -13q0 -4 1 -5.5t1 -3.5v-6v-983h96q23 0 37.5 -14t14.5 -35q0 -20 -14.5 -34.5t-37.5 -14.5h-96v-246q0 -20 -14 -34.5t-37 -14.5q-20 0 -34.5 14.5t-14.5 34.5v246h-776h-2h-4 q-20 0 -31 10q-16 12 -18.5 32.5zM256 393h678v840z" />
<glyph unicode="5" horiz-adv-x="1239" d="M127 178q0 21 16 35q16 16 37 16t37 -16q57 -55 127 -83t143 -28q74 0 143.5 28t127.5 85q57 57 84.5 127t27.5 143q0 76 -27.5 146.5t-82.5 126.5q-55 55 -126 82.5t-145 27.5q-76 0 -145.5 -27.5t-126.5 -84.5q-16 -16 -36.5 -16.5t-35.5 16.5q-8 6 -12 16v2q-2 2 -2 6 q-2 4 -2 17q0 2 1 4t1 6l70 577q0 23 20 37q12 12 33 13h668q23 0 37 -14.5t14 -37.5t-14.5 -37t-36.5 -14h-625l-51 -426q113 66 243 66q94 0 182.5 -35t159.5 -107q72 -72 107 -159.5t35 -184.5q0 -92 -35 -182t-107 -162q-72 -70 -162 -105.5t-182 -35.5q-94 0 -183 35 t-161 106q-16 16 -16 37z" />
<glyph unicode="6" horiz-adv-x="1314" d="M131 503v48q2 143 34 291.5t105 277.5q74 131 199 218t303 94q20 2 34.5 -12.5t16.5 -35.5q0 -23 -14 -37t-35 -16q-152 -6 -251 -76.5t-167 -183.5q-37 -63 -61.5 -136t-40.5 -151q66 74 157 118t197 44q98 0 185.5 -37t152 -101.5t101 -150.5t36.5 -184t-36.5 -184 t-101 -150.5t-151.5 -101.5t-186 -37q-96 0 -181 36t-148.5 97.5t-102.5 144t-41 179.5q-4 23 -4 46zM236 465q0 -10 4 -27q0 -10 -2 -14q8 -68 40.5 -127t83 -103t113 -69t133.5 -25q78 0 146.5 30t120 80t81 117.5t29.5 145.5q0 76 -29.5 144.5t-81 118.5t-120 80 t-146.5 30t-145.5 -30t-117.5 -80t-79.5 -118.5t-29.5 -144.5v-8z" />
<glyph unicode="7" horiz-adv-x="1202" d="M131 1376q0 20 14.5 34.5t34.5 14.5h758q16 4 31 -2q20 -10 26 -30q4 -12 4 -17q0 -16 -8 -26l-555 -1319q-14 -31 -45 -31q-12 0 -20 4q-18 8 -26.5 27.5t-2.5 38.5l530 1257h-692q-20 0 -34.5 14.5t-14.5 34.5z" />
<glyph unicode="8" horiz-adv-x="1290" d="M113 465q0 72 21.5 138.5t59 122.5t90 99t115.5 70q-53 41 -85.5 103.5t-32.5 138.5q0 61 23.5 115.5t63.5 94t94 63.5t116 24q61 0 115.5 -24t95 -63.5t64.5 -94t24 -115.5q0 -76 -34 -138.5t-89 -103.5q63 -27 116.5 -70t91 -99t59 -122.5t21.5 -138.5 q0 -96 -36.5 -181t-99 -148.5t-147.5 -99.5t-181 -36t-181.5 36t-148 99.5t-99 148.5t-36.5 181zM211 465q0 -76 28.5 -142.5t79 -116.5t117 -79t142.5 -29t143 29t116.5 79t78 116.5t28.5 142.5t-28.5 142.5t-78 116.5t-117 78.5t-142.5 28.5q-76 0 -142.5 -28.5 t-117 -78.5t-79 -116.5t-28.5 -142.5zM379 1137q0 -84 57.5 -142.5t141.5 -60.5q84 2 142 60.5t58 142.5t-58 141t-142 57t-141.5 -57t-57.5 -141z" />
<glyph unicode="9" horiz-adv-x="1314" d="M135 963q0 98 37 183t101.5 149.5t150.5 101.5t184 37q92 0 173 -32t144.5 -88.5t103.5 -133t50 -164.5q2 -4 2 -5t2 -5q2 -29 3 -60t1 -63q0 -143 -32.5 -293t-104.5 -279q-37 -63 -87 -118.5t-112.5 -97.5t-138 -67.5t-163.5 -27.5h-3q-23 0 -37 13.5t-14 33.5 q0 23 13.5 37t35.5 16q150 6 251.5 77t166.5 183q74 129 103 287q-66 -74 -157 -116t-200 -42q-98 0 -184 37t-150.5 100.5t-101.5 151t-37 185.5zM236 963q0 -78 29.5 -146.5t79.5 -119t117.5 -79t145.5 -28.5t146.5 28.5t119 79t80 119t29.5 146.5q0 76 -29.5 143.5 t-80 118.5t-119 79.5t-146.5 28.5t-145.5 -28.5t-117.5 -79.5t-79.5 -119t-29.5 -143z" />
<glyph unicode=":" horiz-adv-x="491" d="M178 102q0 43 30 73t73 30t72.5 -30t29.5 -73t-29.5 -72.5t-72.5 -29.5t-73 29.5t-30 72.5zM178 963q0 43 30 72.5t73 29.5t72.5 -29.5t29.5 -72.5t-29.5 -73t-72.5 -30t-73 30t-30 73z" />
<glyph unicode=";" horiz-adv-x="491" d="M121 -184q0 16 16 26q55 31 78 68t18 90q-23 6 -39 23.5t-16 48.5v43q0 29 19.5 48t48.5 19t48 -19.5t19 -47.5v-52q0 -86 -13 -135t-42 -78t-60.5 -47t-45.5 -18q-10 0 -20.5 7.5t-10.5 23.5zM139 961q0 43 30 72.5t73 29.5t72.5 -29.5t29.5 -72.5t-29.5 -73t-72.5 -30 t-73 30t-30 73z" />
<glyph unicode="&#x3c;" horiz-adv-x="1269" d="M125 705q-4 8 0 18q0 2 4 14q4 8 6 11l6 6l2 2l648 655q16 16 41.5 16t41.5 -16q16 -18 16.5 -43t-16.5 -43l-610 -612l610 -615q16 -16 16.5 -39.5t-16.5 -40.5q-16 -18 -43 -18q-22 0 -40 18l-648 652l-2 2q-8 8 -10 12l-2 4q-2 2 -2 6q-2 4 -2 11z" />
<glyph unicode="=" horiz-adv-x="1269" d="M162 496q0 23 16.5 39t40.5 16h729q25 0 41.5 -16.5t16.5 -38.5q0 -25 -16.5 -41.5t-41.5 -16.5h-729q-25 0 -41 16.5t-16 41.5zM162 936q0 25 16.5 41t40.5 16h729q25 0 41.5 -16t16.5 -41q0 -23 -16.5 -39t-41.5 -16h-729q-25 0 -41 16t-16 39z" />
<glyph unicode="&#x3e;" horiz-adv-x="1269" d="M186.5 58q-0.5 24 16.5 40l610 615l-610 612q-16 18 -16.5 43t16.5 43q16 16 41.5 16t42.5 -16l647 -655l2 -2q16 -16 16 -41q0 -23 -12 -37l-4 -4l-2 -2l-647 -652q-16 -18 -41 -18t-43 18q-16 16 -16.5 40z" />
<glyph unicode="?" horiz-adv-x="1093" d="M84 1176.5q-4 19.5 6 35.5q57 100 157.5 161t223.5 61q92 0 172 -35t140.5 -95.5t95 -141.5t34.5 -173q0 -84 -30.5 -159.5t-82.5 -134t-125 -97.5t-155 -47v-219q0 -20 -14 -33.5t-35 -13.5q-18 0 -32.5 13t-14.5 34v256v6v2q0 20 14.5 33.5t32.5 13.5q72 0 135.5 27.5 t110.5 75t73.5 110t26.5 133.5q0 74 -26.5 136.5t-73.5 109.5t-110.5 74.5t-135.5 27.5q-98 0 -176 -47t-123 -127q-10 -16 -29.5 -21t-36.5 5q-18 10 -22 29.5zM424 47v45q0 20 14.5 34.5t32.5 14.5q20 0 34.5 -14t14.5 -35v-45q0 -20 -14 -33.5t-35 -13.5 q-18 0 -32.5 13.5t-14.5 33.5z" />
<glyph unicode="@" horiz-adv-x="2007" d="M109 719q0 150 56 279.5t153.5 227t228.5 154t280 56.5q150 0 280 -56.5t227.5 -154t153.5 -227.5t56 -279q0 -180 -76 -328q-2 -2 -14 -21.5t-35.5 -45t-57.5 -51t-79 -37.5q-10 -4 -20.5 -4.5t-20.5 -0.5q-41 0 -70.5 16.5t-46.5 39.5q-33 49 -32 98v70 q-51 -57 -118 -90t-147 -33q-76 0 -142.5 30.5t-116.5 84t-78.5 123t-28.5 149.5q0 78 28.5 147.5t78.5 121.5t117 83t142 31q76 0 142.5 -31t116 -83t77 -121.5t27.5 -147.5v-17v-10v-301h2q-2 -10 3 -22.5l9 -22.5q10 -14 37 -14h16q23 6 43.5 20.5t36 30.5t25.5 31.5 t14 23.5q68 123 68 281q0 127 -49 238.5t-133 195.5t-196 133t-239 49t-239.5 -49t-196.5 -133t-133 -195.5t-49 -238.5t49 -239.5t133 -196.5t196.5 -133.5t239.5 -49.5q41 0 78 3t76 14q20 4 37.5 -4.5t19.5 -30.5q8 -20 -3 -37.5t-31 -21.5q-86 -23 -177 -23 q-150 0 -280.5 56.5t-228 153.5t-153.5 228t-56 281zM567 719q0 -59 20.5 -110.5t55.5 -89.5t83 -59.5t101 -21.5t100.5 21.5t83.5 59.5t57.5 89t21.5 111q0 57 -21.5 109.5t-57.5 90t-83 60t-101 22.5q-53 0 -101 -22.5t-83 -60t-55.5 -90t-20.5 -109.5z" />
<glyph unicode="A" horiz-adv-x="1323" d="M119 51q0 8 4 17l498 1329q14 30 47 30h2q39 0 49 -30l498 -1329q4 -9 4 -18q-1 -10 -5 -20q-8 -20 -26 -28q-6 0 -10 -1t-9 -1q-14 0 -27.5 8t-19.5 25l-127 338h-653l-127 -338q-12 -33 -47 -33q-4 0 -9 1t-9 1q-18 8 -28 28q-5 11 -5 21zM381 471h580l-289 770z" />
<glyph unicode="B" horiz-adv-x="1216" d="M213 49v1335q0 20 14.5 35t34.5 15h6h314q74 0 138 -28t113.5 -77t77 -114.5t27.5 -139.5q0 -86 -38 -157.5t-99 -120.5q61 -20 112.5 -58.5t88 -88.5t58 -111.5t21.5 -128.5q0 -86 -32.5 -161t-88 -130.5t-130 -87t-158.5 -31.5h-404h-6h-2q-20 0 -33.5 14.5t-13.5 34.5 zM313 100h359q63 0 119.5 25t98.5 65.5t66.5 97t24.5 122.5q0 63 -24.5 119.5t-66.5 98.5t-98.5 66.5t-119.5 24.5h-359v-619zM313 821h269q53 0 99 20.5t81 54.5t55.5 80t20.5 99t-20.5 100.5t-55.5 82t-81 55t-99 20.5h-269v-512z" />
<glyph unicode="C" horiz-adv-x="1579" d="M150 723q0 154 58 287t159.5 231t237.5 155.5t290 57.5q133 0 251 -43t212 -115q16 -14 19 -36q1 -4 1 -7q0 -17 -12 -28q-12 -18 -32.5 -20.5t-37.5 9.5q-84 66 -185 103t-216 37q-135 0 -252 -49.5t-205 -135.5t-138 -200.5t-50 -245.5q0 -129 50 -241.5t138 -197.5 t205 -134.5t252 -49.5q115 0 216 36t181 104q18 12 40 9t32 -22q13 -12 13 -30v-7q-3 -22 -19 -34q-94 -72 -212 -114t-251 -42q-154 0 -290 56.5t-237.5 154.5t-159.5 230t-58 282z" />
<glyph unicode="D" horiz-adv-x="1472" d="M213 49v1335q0 20 14.5 35t34.5 15h6h262q147 0 278.5 -56.5t229 -155t153.5 -229.5t56 -278t-56 -278.5t-153.5 -227.5t-228.5 -152.5t-279 -56.5h-264h-8q-18 2 -31.5 15.5t-13.5 33.5zM313 100h217q127 0 240 48.5t197 131t132 195.5t48 240q0 129 -48 240.5 t-132 195.5t-197 133t-240 49h-217v-1233z" />
<glyph unicode="E" horiz-adv-x="1214" d="M213 49v1335q0 20 14.5 35t34.5 15h4h733q23 0 36.5 -14.5t13.5 -35.5q0 -23 -13.5 -37t-36.5 -14h-686v-567h600q20 0 35 -14.5t15 -36.5q0 -20 -14.5 -34.5t-35.5 -14.5h-600v-566h686q23 0 36.5 -14t13.5 -37q0 -20 -13.5 -34.5t-36.5 -14.5h-731h-6h-4 q-18 2 -31.5 15.5t-13.5 33.5z" />
<glyph unicode="F" horiz-adv-x="1239" d="M213 49v1335q0 20 13.5 34t33.5 16h8h733q20 0 35 -14.5t15 -35.5q0 -23 -14.5 -37t-35.5 -14h-688v-567h602q23 0 37.5 -14.5t14.5 -36.5q0 -20 -14.5 -34.5t-37.5 -14.5h-602v-617q0 -20 -14 -34.5t-37 -14.5q-20 0 -34.5 14.5t-14.5 34.5z" />
<glyph unicode="G" horiz-adv-x="1667" d="M150 729q0 150 58 282t159.5 230t237.5 155.5t290 57.5q135 0 251 -43t214 -119q14 -10 17 -32q1 -3 1 -7q0 -17 -12 -30q-12 -16 -32.5 -18.5t-39.5 9.5q-78 66 -180 103t-219 37q-135 0 -252 -49.5t-205 -134.5t-138 -198.5t-50 -242.5q0 -131 50 -245.5t138 -199.5 t205 -134.5t252 -49.5q104 0 201.5 32t177.5 91v422h-391q-23 0 -37.5 13.5t-14.5 35.5q0 23 14.5 37t37.5 14h442h6q18 -2 31.5 -16t13.5 -35v-491v-8q-4 -25 -18 -37q-96 -76 -213 -117t-250 -41q-154 0 -290 57.5t-237.5 155.5t-159.5 231.5t-58 284.5z" />
<glyph unicode="H" horiz-adv-x="1452" d="M213 49v1335q0 20 14.5 35t34.5 15q23 0 37 -14.5t14 -35.5v-618h738v618q0 20 14 35t35 15q23 0 37 -14.5t14 -35.5v-1335q0 -20 -14.5 -34.5t-36.5 -14.5q-20 0 -34.5 14.5t-14.5 34.5v619h-738v-619q0 -20 -14 -34.5t-37 -14.5q-20 0 -34.5 14.5t-14.5 34.5z" />
<glyph unicode="I" horiz-adv-x="624" d="M227 49v1335q0 20 14.5 35t34.5 15q23 0 37.5 -14.5t14.5 -35.5v-1335q0 -20 -14.5 -34.5t-37.5 -14.5q-20 0 -34.5 14.5t-14.5 34.5z" />
<glyph unicode="J" horiz-adv-x="1216" d="M92 352q0 11 5 22q9 19 30 25q20 6 38.5 -3t22.5 -27q18 -59 54.5 -108.5t84.5 -85.5t106.5 -55.5t123.5 -19.5q80 0 150.5 30t123 82t83 123t30.5 150v899q0 20 14.5 35t34.5 15t34.5 -14.5t14.5 -35.5v-899q0 -102 -37.5 -190t-104 -153.5t-155 -103.5t-188.5 -38 q-80 0 -153.5 25.5t-135 69.5t-106.5 105.5t-68 135.5q-2 8 -2 16z" />
<glyph unicode="K" horiz-adv-x="1464" d="M213 49v1329q0 23 14.5 37.5t34.5 14.5q23 0 37 -14.5t14 -37.5v-829l867 866q16 14 36.5 14.5t32.5 -14.5q17 -14 17 -36q0 -20 -17 -36l-549 -548l562 -713q12 -16 12 -31q0 -21 -21 -41q-12 -10 -32 -10q-25 0 -37 18l-555 705l-316 -315v-359q0 -20 -14 -34.5 t-37 -14.5q-20 0 -34.5 14.5t-14.5 34.5z" />
<glyph unicode="L" horiz-adv-x="1153" d="M213 49v1335q0 20 14.5 35t34.5 15q23 0 37 -14.5t14 -35.5v-1284h686q23 0 37.5 -14t14.5 -37q0 -20 -14.5 -34.5t-37.5 -14.5h-733h-4q-20 0 -34.5 14.5t-14.5 34.5z" />
<glyph unicode="M" horiz-adv-x="1728" d="M213 49v1327q0 25 20 39l5 4q12 8 27 8q3 0 9 -1q20 -3 33 -19l510 -707l508 707q9 15 31 19q5 1 11 1q15 0 28 -8q10 -10 14 -16q8 -16 8 -27v-1327q0 -20 -14 -34.5t-35 -14.5q-23 0 -36 14.5t-13 34.5v1180l-459 -637q-14 -23 -41 -23h-4q-29 0 -43 23l-459 635v-1178 q0 -20 -14 -34.5t-35 -14.5q-23 0 -37 14.5t-14 34.5z" />
<glyph unicode="N" horiz-adv-x="1579" d="M216 1380q0 22 22 39q12 8 28 8q6 0 10 -1q22 -3 31 -19l869 -1204v1167q0 20 14 34.5t35 14.5q23 0 37 -14t14 -35v-1321q0 -20 -14.5 -34.5t-36.5 -14.5q-25 0 -39 18q-2 2 -4 3.5t-4 5.5l-861 1196v-1174q0 -20 -14 -34.5t-35 -14.5q-20 0 -34.5 14.5t-14.5 34.5v1315 q-3 8 -3 16z" />
<glyph unicode="O" horiz-adv-x="1740" d="M150 727q0 150 54 283t147 231t219 155.5t272 57.5q143 0 268 -57.5t217 -155.5t146.5 -231t54.5 -283q0 -152 -54.5 -284t-146.5 -230t-217 -155.5t-268 -57.5q-145 0 -271.5 57.5t-219.5 155.5t-147 230t-54 284zM250 727q0 -131 47 -245.5t127 -198.5t187.5 -133.5 t230.5 -49.5q119 0 224 49.5t185 133.5t127 198.5t47 245.5q0 133 -47 246.5t-127 197.5t-185 132.5t-224 48.5q-123 0 -230.5 -48.5t-187.5 -132.5t-127 -197.5t-47 -246.5z" />
<glyph unicode="P" horiz-adv-x="1193" d="M213 49v1335q0 20 14.5 35t34.5 15h6h400q84 0 158.5 -33t130 -88.5t87 -130t31.5 -158.5t-31.5 -158.5t-87 -130t-130 -87.5t-158.5 -32l-355 -4v-563q0 -20 -14 -34.5t-37 -14.5q-20 0 -34.5 14.5t-14.5 34.5zM313 713h355q63 0 119.5 25.5t98.5 67.5t66.5 98.5 t24.5 119.5t-24.5 119.5t-66.5 98.5t-98.5 66.5t-119.5 24.5h-355v-620z" />
<glyph unicode="Q" horiz-adv-x="1728" d="M135 725q0 150 53.5 282t146.5 231t219 157.5t269 58.5t269.5 -58.5t219.5 -157.5t146 -231.5t53 -281.5q0 -113 -30.5 -216t-87 -190.5t-134 -155t-169.5 -110.5l-207 -96q31 -6 63.5 -17.5t61.5 -27.5q78 -47 154.5 -77t152.5 -30q59 0 123.5 24t136.5 79q16 12 37 10 t35 -18q11 -15 11 -35q0 -24 -18 -39q-86 -66 -165.5 -93.5t-157.5 -27.5h-2q-98 0 -186.5 35t-170.5 82q-47 27 -89 36t-83 9q-72 0 -126 -17.5t-64 -27.5h-2q-29 -14 -57 4h-2q-4 6 -8.5 11t-6.5 11q-10 18 -3 38t26 30l190 86q-127 18 -236.5 81.5t-189.5 160t-126 220.5 t-46 261zM238 725q0 -131 46 -244.5t125.5 -198.5t186 -134.5t227.5 -49.5q119 0 225.5 49.5t186.5 134.5t127 198.5t47 244.5t-47 244.5t-127 198.5t-186.5 133.5t-225.5 48.5q-121 0 -227.5 -48.5t-186 -133.5t-125.5 -198.5t-46 -244.5z" />
<glyph unicode="R" horiz-adv-x="1280" d="M184 49v1335q0 18 13.5 33t31.5 17h4h7h399q84 0 158.5 -32t130 -87t87.5 -130t32 -161q0 -123 -66 -222.5t-170 -148.5q4 -4 9 -5t11 -5q35 -20 70 -50t62.5 -70t44 -89t16.5 -110q0 -63 4 -103.5t14 -62.5q6 -18 12.5 -25.5t8.5 -9.5q16 2 32.5 -7.5t22.5 -25.5 q1 -7 1 -13q0 -13 -5 -25q-8 -18 -29 -27q-2 0 -8 -1t-16 -1h-4q-20 0 -48 15t-44 50q-18 35 -28.5 89t-10.5 147q0 78 -35 130t-82 87t-96 51t-70 20q-12 4 -10 4h-348v-567q0 -20 -14.5 -34.5t-37.5 -14.5q-20 0 -34.5 14.5t-14.5 34.5zM285 715h344h18q61 2 116.5 26.5 t96.5 66.5t64.5 97.5t23.5 118.5t-24.5 120.5t-66.5 98.5t-98.5 65.5t-119.5 24.5h-354v-618z" />
<glyph unicode="S" horiz-adv-x="1366" d="M138 240q0 16 9 28q12 16 31 17.5t33 -11.5q39 -33 92 -65.5t113.5 -59t128 -43t137.5 -16.5q94 0 175 25.5t140 68.5q123 88 123 213q0 61 -28.5 108.5t-87.5 88.5q-59 39 -143.5 67.5t-188.5 49.5h-4q-100 18 -186.5 46.5t-151.5 73.5q-66 43 -107 106.5t-41 143.5 q0 82 41 150.5t109 118.5q68 49 155.5 76.5t190.5 27.5q70 0 132 -15.5t117.5 -40t102.5 -54t90 -56.5q16 -10 19.5 -28.5t-6.5 -34.5t-28 -19.5t-34 6.5q-84 55 -179 103.5t-214 48.5q-88 0 -164 -23.5t-129 -62.5q-53 -41 -83 -91t-30 -106q2 -102 107 -174 q53 -37 131 -63.5t176 -44.5h4q109 -20 201 -52t164 -79t114.5 -116t42.5 -155t-45 -159.5t-116 -126.5q-72 -53 -166 -83t-203 -30q-82 0 -157.5 19.5t-143.5 49t-125 66.5t-102 72q-16 13 -16 35z" />
<glyph unicode="T" horiz-adv-x="1327" d="M102 1384q0 20 14.5 35t35.5 15h962q20 0 34.5 -14.5t14.5 -35.5q0 -23 -14 -37t-35 -14h-432v-1284q0 -20 -14.5 -34.5t-34.5 -14.5t-34.5 14.5t-14.5 34.5v1284h-432q-20 0 -35 14.5t-15 36.5z" />
<glyph unicode="U" horiz-adv-x="1667" d="M215 580v804q0 20 14.5 35t34.5 15q23 0 37 -14.5t14 -35.5v-804q0 -98 38 -185.5t102.5 -153t151.5 -103.5t186 -38q100 0 187 38t152.5 103.5t103.5 152.5t38 186v804q0 20 14.5 35t34.5 15q23 0 37 -14.5t14 -35.5v-804q0 -121 -46 -226.5t-125 -183.5t-184.5 -124 t-225.5 -46q-119 0 -224.5 46t-183.5 124t-124 183.5t-46 226.5z" />
<glyph unicode="V" horiz-adv-x="1536" d="M121 1374.5q0 9.5 4 19.5q8 20 27 27q10 6 20 6q8 0 18 -4q20 -8 27 -26l512 -1221l514 1221q5 19 25 27q6 3 13 3h4q11 0 22 -6q18 -7 26 -27q4 -10 4 -19.5t-4 -18.5l-555 -1311q-4 -31 -28 -41h-2q-12 -4 -19 -4q-14 0 -18 2l-2 2q-18 6 -25 25q-2 0 -2 4l-2 2 l-555 1321q-4 9 -4 18.5z" />
<glyph unicode="W" horiz-adv-x="2256" d="M130 1376q0 9 4 18q8 20 26 27q10 6 20 6q8 0 18 -4q20 -8 27 -26l512 -1219l365 862q16 31 47 31q35 0 51 -31l363 -862l512 1219q9 19 27 27q6 3 13 3h4q11 0 23 -6q18 -7 26 -27q4 -9 4 -18q0 -10 -5 -20l-557 -1323q-6 -14 -18.5 -22.5t-22.5 -10.5h-4h-6 q-14 0 -25 8q-2 2 -4 3t-4 5q-4 4 -8 13q0 4 -2 6l-365 866l-367 -866q0 -6 -4 -10q-2 -6 -10 -15l-4 -2q-10 -8 -29 -8q-16 0 -30 10l-5 4l-2 2q-10 8 -12 25l-553 1315q-5 10 -5 20z" />
<glyph unicode="X" horiz-adv-x="1478" d="M156 50q0 16 12 30l461 633l-461 633q-12 13 -12 30q0 4 1 8q3 22 19 31q13 12 30 12q4 0 8 -1q22 -3 32 -19l444 -610l445 610q13 15 33 19q4 1 8 1q15 0 28 -12q16 -9 20 -31l2 -10q0 -16 -12 -28l-462 -633l462 -633q11 -13 11 -28q-1 -4 -1 -8q-4 -20 -20 -34 q-16 -10 -28 -10q-25 0 -41 23l-445 608l-444 -608q-12 -23 -39 -23q-15 0 -31 10q-16 12 -19 32q-1 4 -1 8z" />
<glyph unicode="Y" horiz-adv-x="1236" d="M117 1376v8q2 21 18 31q13 12 30 12q4 0 8 -1q22 -3 32 -19l448 -616l451 616q10 16 32 19q4 1 7 1q17 0 31 -12q16 -10 19 -31q1 -5 1 -9q0 -16 -10 -29l-479 -654v-643q0 -20 -13.5 -34.5t-36.5 -14.5q-20 0 -34.5 14.5t-14.5 34.5v639l-481 658q-8 13 -8 30z" />
<glyph unicode="Z" horiz-adv-x="1366" d="M150 48q0 10 4 20q6 12 12 18l903 1241h-868q-20 0 -34.5 14.5t-14.5 34.5t14 34.5t35 14.5h952q6 2 12 2q14 0 29 -10q8 -4 14 -10q10 -12 10.5 -29.5t-10.5 -31.5l-911 -1246h872q20 0 35 -14t15 -37q0 -20 -14.5 -34.5t-35.5 -14.5h-968h-4q-4 0 -7.5 1t-7.5 1 q-8 4 -12 8q-14 10 -18 26q-2 6 -2 12z" />
<glyph unicode="[" horiz-adv-x="880" d="M201 -213v1593q0 23 15 38.5t38 15.5h475q16 0 27.5 -11.5t11.5 -27.5t-11.5 -27.5t-27.5 -11.5h-434v-1544h434q16 0 27.5 -11.5t11.5 -27.5t-11.5 -27.5t-27.5 -11.5h-475q-23 0 -38 15t-15 38z" />
<glyph unicode="\" horiz-adv-x="917" d="M135 1400.5q8 18.5 29 26.5q20 8 37.5 0t27.5 -26l559 -1327q8 -20 0 -39t-26 -29q-6 -2 -21 -2q-33 0 -45 31l-559 1327q-10 20 -2 38.5z" />
<glyph unicode="]" horiz-adv-x="880" d="M113 -227q0 16 11 27.5t28 11.5h434v1544h-434q-16 0 -27.5 11t-11.5 28q0 16 11 27.5t28 11.5h475q23 0 38 -15.5t15 -38.5v-1593q0 -23 -15.5 -38t-37.5 -15h-475q-16 0 -27.5 11t-11.5 28z" />
<glyph unicode="^" horiz-adv-x="1024" d="M164 1024q0 10 10 27l272 360q14 16 26.5 26.5t31.5 10.5h16q18 0 30.5 -10.5t27.5 -26.5l272 -360q10 -16 10 -27q0 -8 -7 -15.5t-24 -7.5q-25 0 -43 6.5t-30 22.5l-246 322l-246 -322q-12 -16 -30.5 -22.5t-40.5 -6.5q-14 0 -21.5 7.5t-7.5 15.5z" />
<glyph unicode="_" horiz-adv-x="1228" d="M-49 -283q0 18 13 31.5t32 13.5h1237q18 0 31.5 -13t13.5 -32q0 -18 -13.5 -31.5t-31.5 -13.5h-1237q-18 0 -31.5 13.5t-13.5 31.5z" />
<glyph unicode="`" horiz-adv-x="1024" d="M334 1434q0 16 28.5 31.5t57.5 15.5q33 0 57 -37l127 -191q8 -12 8 -22q1 -19 -26 -19q-20 0 -33.5 5.5t-32.5 21.5l-164 158q-23 23 -22 37z" />
<glyph unicode="a" horiz-adv-x="1267" d="M82 502q0 102 37 193t101.5 160t151.5 109t185 40q117 0 214 -53.5t163 -143.5v147q0 23 14.5 36.5t34.5 13.5t34.5 -13.5t14.5 -36.5v-905q0 -20 -14 -34.5t-35 -14.5q-20 0 -34.5 14.5t-14.5 34.5v150q-66 -90 -163 -144.5t-214 -54.5q-98 0 -185 40t-151.5 108.5 t-101.5 159.5t-37 194zM180 502q0 -84 30 -158t82 -128t119.5 -86t145.5 -32t146.5 32t119.5 86t81 128t30 158t-30 157.5t-81 129t-119.5 87t-146.5 31.5t-145.5 -31.5t-119.5 -87t-82 -129t-30 -157.5z" />
<glyph unicode="b" horiz-adv-x="1351" d="M190 49v430v21v20v864q0 20 14.5 35t35.5 15q23 0 37 -14.5t14 -35.5v-577q66 90 166 143.5t219 53.5q100 0 189 -40t154.5 -108t103.5 -160t38 -196q0 -102 -38 -193.5t-103.5 -159t-154.5 -107.5t-189 -40q-119 0 -219.5 52t-165.5 143v-146q0 -20 -14.5 -34.5 t-36.5 -14.5q-20 0 -35 14.5t-15 34.5zM291 500q0 -84 30.5 -157t83 -126t122 -85t149.5 -32t149.5 32t121.5 85t83 126t31 157t-31 157.5t-83 128t-121.5 86t-149.5 31.5q-78 0 -146.5 -30.5t-121 -83t-84 -123t-33.5 -150.5v-16z" />
<glyph unicode="c" horiz-adv-x="1169" d="M119 504q0 104 40 195.5t110.5 159t163.5 106.5t202 39q90 0 172 -29t147 -82q16 -11 18 -31q0 -3 1 -6q0 -17 -12 -31t-32 -17t-36 9q-53 43 -119.5 66.5t-138.5 23.5q-88 0 -164 -31.5t-132 -87t-89 -129t-33 -155.5q0 -84 33 -158t89 -129t132 -87t164 -32 q72 0 138.5 23.5t119.5 64.5q16 12 35.5 9.5t32.5 -17.5q12 -13 12 -29q0 -3 -1 -7q-3 -20 -22 -36q-63 -49 -144 -77.5t-171 -28.5q-109 0 -202 39t-163.5 106.5t-110.5 159.5t-40 199z" />
<glyph unicode="d" horiz-adv-x="1351" d="M123 500q0 104 38 196t103.5 160t153.5 108t190 40q119 0 219.5 -53.5t165.5 -143.5v577q0 20 14.5 35t36.5 15q20 0 35 -14.5t15 -35.5v-864v-20v-451q0 -20 -14.5 -34.5t-35.5 -14.5q-23 0 -37 14.5t-14 34.5v146q-66 -90 -166 -142.5t-219 -52.5q-102 0 -190 40 t-153.5 107.5t-103.5 158.5t-38 194zM223 500q0 -84 31 -157t83 -126t121.5 -85t149.5 -32q78 0 146.5 30t121 82t83 121.5t34.5 149.5v33q-4 80 -34.5 150.5t-83 123t-121 83t-146.5 30.5q-80 0 -149.5 -31.5t-121.5 -86t-83 -128t-31 -157.5z" />
<glyph unicode="e" horiz-adv-x="1247" d="M119 500q0 104 38 196t104.5 160t154.5 108t190 40q96 0 181 -36t149.5 -99.5t104.5 -148.5t49 -183v-2v-7q0 -20 -14.5 -32.5t-35.5 -12.5h-823q4 -82 36 -152.5t85 -121.5t121.5 -81t146.5 -30q100 0 186.5 48.5t137.5 134.5q10 18 29.5 22t35.5 -6q16 -12 21.5 -31.5 t-4.5 -38.5q-66 -104 -171.5 -165.5t-234.5 -61.5q-102 0 -190 40t-154.5 107.5t-104.5 158.5t-38 194zM223 580h760q-12 70 -47 130t-85 103t-112.5 67.5t-132.5 24.5q-72 0 -135 -24.5t-113.5 -67.5t-85 -102.5t-49.5 -130.5z" />
<glyph unicode="f" horiz-adv-x="741" d="M133 971q0 20 14.5 34.5t34.5 14.5h133v106q2 78 16.5 135.5t49.5 98.5q37 41 90.5 56.5t112.5 15.5q20 0 34.5 -14.5t14.5 -37.5q0 -20 -14.5 -34.5t-34.5 -14.5q-53 0 -82 -10t-45 -29q-16 -18 -28.5 -57t-12.5 -109v-106h141q23 0 37 -14.5t14 -34.5q0 -23 -14 -37 t-37 -14h-141v-873q0 -20 -14.5 -34.5t-34.5 -14.5q-23 0 -37.5 14.5t-14.5 34.5v873h-133q-20 0 -34.5 14t-14.5 37z" />
<glyph unicode="g" horiz-adv-x="1351" d="M123 506q0 100 37 191t100.5 159t149.5 108t184 40q117 0 214 -53.5t161 -143.5v147q0 20 14 35t37 15q18 0 32.5 -15t14.5 -35v-874q0 -98 -37 -183t-101.5 -149.5t-150.5 -101.5t-184 -37q-55 0 -107.5 12t-101.5 35q-16 10 -23.5 29.5t3.5 35.5q10 20 28.5 26.5 t36.5 -3.5q76 -37 164 -37q78 0 146.5 28.5t118.5 80t80 119t30 145.5v123q-63 -92 -160.5 -144.5t-214.5 -52.5q-98 0 -184 39t-149.5 106.5t-100.5 158.5t-37 196zM221 506q0 -84 30 -158t80 -128t117.5 -86t145.5 -32t146.5 32t118.5 86t80 128t30 158t-30 156.5t-80 127 t-118.5 85t-146.5 30.5t-145.5 -30.5t-117.5 -85t-80 -127t-30 -156.5z" />
<glyph unicode="h" d="M190 49v559v17v759q0 20 14.5 35t35.5 15q23 0 37 -14.5t14 -35.5v-528q57 68 139 108t178 40q86 0 163 -30t134.5 -82t90 -125t32.5 -159v-559q0 -20 -14.5 -34.5t-36.5 -14.5q-20 0 -34.5 14.5t-14.5 34.5v559q0 66 -25.5 120t-68.5 93t-101.5 60.5t-124.5 21.5 t-123 -21.5t-100 -60.5t-68.5 -93t-25.5 -120v-559v-6q0 -4 -1 -5t-1 -3l-4 -8q-10 -18 -31 -25q-2 -2 -4 -2h-4h-6q-23 0 -39 16q-6 8 -8 17q-2 6 -3 16z" />
<glyph unicode="i" horiz-adv-x="575" d="M193 49v905q0 23 14 36.5t35 13.5q23 0 37 -13.5t14 -36.5v-905q0 -20 -14.5 -34.5t-36.5 -14.5q-20 0 -34.5 14.5t-14.5 34.5zM193 1235v47q0 20 14 34.5t35 14.5q23 0 37 -14t14 -35v-47q0 -23 -14.5 -38t-36.5 -15q-20 0 -34.5 15t-14.5 38z" />
<glyph unicode="j" horiz-adv-x="509" d="M-10 -344q0 23 13 37t36 14q29 0 51.5 22.5t22.5 53.5v1169q0 23 15 37.5t36 14.5q20 0 34.5 -14.5t14.5 -37.5v-1169q0 -74 -50 -124t-124 -50q-23 0 -36 13.5t-13 33.5zM117 1235v47q0 20 16.5 34.5t34.5 14.5q20 0 34.5 -14t14.5 -35v-47q0 -20 -14.5 -35.5 t-34.5 -15.5q-18 0 -34.5 15t-16.5 36z" />
<glyph unicode="k" horiz-adv-x="1146" d="M190 49v1335q0 20 14.5 35t35.5 15q23 0 37 -14.5t14 -35.5v-964l594 592q16 16 34.5 16t34.5 -16q17 -14 17 -35q0 -19 -17 -35l-387 -387l389 -473q15 -17 15 -34q0 -19 -19 -38q-12 -10 -32 -10q-10 0 -21.5 4t-17.5 14l-385 465l-205 -204v-230q0 -20 -14.5 -34.5 t-36.5 -14.5q-20 0 -35 14.5t-15 34.5z" />
<glyph unicode="l" horiz-adv-x="509" d="M205 49v1335q0 20 14 35t35 15q23 0 37 -14.5t14 -35.5v-1335q0 -20 -14.5 -34.5t-36.5 -14.5q-20 0 -34.5 14.5t-14.5 34.5z" />
<glyph unicode="m" horiz-adv-x="1947" d="M190 37v10v547v16v344q0 20 14.5 33.5t33.5 13.5q23 0 36 -13t13 -34v-96q55 66 135 104.5t174 38.5q117 0 211 -58t147 -155q53 96 148.5 154.5t212.5 58.5q84 0 158.5 -31.5t130 -87t87 -130t31.5 -158.5v-547q0 -18 -13 -32.5t-36 -14.5q-20 0 -33.5 14.5t-13.5 32.5 v547q-2 63 -26.5 119.5t-66.5 99.5t-98.5 67.5t-119.5 24.5t-119.5 -24.5t-98.5 -67.5t-66.5 -99.5t-24.5 -119.5v-547v-6l-2 -4v-4q-4 -10 -10.5 -16.5t-14.5 -10.5q-12 -6 -25 -6h-6h-4l-4 2q-4 0 -6 2t-6 4q-2 0 -6 4l-7 6q-4 4 -4 5q0 2 -2 4q0 2 -2 4q0 4 -2 6v6v4v547 q0 63 -24.5 119.5t-65.5 99.5t-98.5 67.5t-120.5 24.5q-66 0 -122 -24.5t-97 -67.5t-65.5 -99.5t-24.5 -119.5v-547q0 -27 -23 -39q-6 -6 -12 -6q-2 -2 -8 -2h-6h-7q-31 4 -41 37z" />
<glyph unicode="n" d="M190 37v12v545v16v342q0 20 13.5 34.5t36.5 14.5q20 0 33.5 -14t13.5 -35v-96q55 66 136 105.5t175 39.5q84 0 158.5 -32.5t130 -88t87.5 -129t32 -157.5v-545q0 -23 -14.5 -36t-35.5 -13q-20 0 -34.5 13t-14.5 36v545q0 63 -24.5 119.5t-65.5 98.5t-98 66.5t-121 24.5 q-63 0 -119.5 -24.5t-98.5 -66.5t-66.5 -98.5t-26.5 -119.5v-545v-8q-4 -16 -11 -23q-12 -18 -36 -18h-13q-23 6 -32 27q-2 2 -2 6q-2 4 -3 4z" />
<glyph unicode="o" horiz-adv-x="1280" d="M143 502q0 102 37 193t101.5 160t151.5 109t185 40t185.5 -40t152 -109t101.5 -160t37 -193t-37 -193.5t-101.5 -160t-151.5 -108.5t-186 -40q-98 0 -185 40t-151.5 108.5t-101.5 160t-37 193.5zM242 502q0 -84 29.5 -158t82 -128t120 -86t144.5 -32q76 0 144.5 32 t121 86t82 128t29.5 158t-29.5 157.5t-82 129t-121 87t-144.5 31.5q-78 0 -145 -31.5t-119.5 -87t-82 -129t-29.5 -157.5z" />
<glyph unicode="p" horiz-adv-x="1351" d="M190 -371v856v21v20v428q0 20 14.5 35t35.5 15q23 0 37 -14.5t14 -35.5v-145q66 88 165 141.5t216 53.5q100 0 189 -39t154.5 -106.5t103.5 -159t38 -193.5t-38 -193.5t-103.5 -159t-154.5 -107.5t-189 -40q-117 0 -216.5 53.5t-164.5 143.5v-574q0 -20 -14.5 -34.5 t-36.5 -14.5q-20 0 -35 14.5t-15 34.5zM291 506q0 -84 30.5 -157t83 -127t121 -86t146.5 -32q80 0 149.5 32t121.5 86t83 127t31 157q0 82 -31 154.5t-83 127t-121.5 85t-149.5 30.5q-76 0 -143.5 -29.5t-120 -81t-84 -121t-33.5 -149.5v-16z" />
<glyph unicode="q" horiz-adv-x="1351" d="M123 506q0 102 38 193.5t103.5 159t153.5 106.5t186 39q119 0 219.5 -53.5t165.5 -143.5v147q0 20 14.5 35t34.5 15q23 0 37.5 -14.5t14.5 -35.5v-428v-20v-21v-856q0 -20 -14.5 -34.5t-37.5 -14.5q-20 0 -34.5 14.5t-14.5 34.5v574q-66 -90 -166 -144.5t-219 -54.5 q-98 0 -186 41t-153.5 108.5t-103.5 158.5t-38 194zM223 506q0 -84 30 -157t82 -127t121.5 -86t147.5 -32q80 0 149.5 32t122 86t83 127t30.5 157t-30.5 156.5t-83 126t-122 84t-149.5 30.5q-78 0 -147.5 -30.5t-121.5 -84t-82 -126t-30 -156.5z" />
<glyph unicode="r" horiz-adv-x="899" d="M190 49v903q0 23 14.5 36t37.5 13q18 0 32.5 -13t14.5 -36v-221q8 16 14 25q29 45 68 89t89 78.5t111.5 56t133.5 21.5q20 0 34.5 -13t14.5 -36q0 -20 -14.5 -34.5t-34.5 -14.5q-98 0 -168 -48t-123 -116q-51 -68 -81 -135t-40 -98q-4 -8 -4 -17v-440q0 -23 -14.5 -36 t-32.5 -13q-23 0 -37.5 13t-14.5 36z" />
<glyph unicode="s" horiz-adv-x="1007" d="M110 178q0 16 11 31q12 16 32.5 18t36.5 -12q53 -39 132 -78t176 -39q59 0 107 16.5t83 45.5q76 51 76 123q-2 35 -17.5 62.5t-54.5 60.5q-63 49 -213 73l-4 2q-68 12 -126 29.5t-101 48.5q-47 29 -78 75t-31 105t31 110.5t78 86.5q45 31 106.5 49.5t139.5 18.5 q98 0 168.5 -36t130.5 -73q16 -12 20 -32.5t-6 -37.5q-10 -16 -30.5 -20t-37.5 6q-55 37 -113.5 68.5t-131.5 31.5q-61 0 -109.5 -15t-81.5 -42q-63 -51 -63 -115q0 -31 14 -54t43 -46q72 -49 205 -70h4q72 -10 131 -31.5t113 -50.5q49 -33 80.5 -87t31.5 -117t-31.5 -113.5 t-82.5 -89.5q-53 -39 -115 -59.5t-135 -20.5q-123 2 -216.5 48t-154.5 95q-17 15 -17 35z" />
<glyph unicode="t" horiz-adv-x="819" d="M86 954q0 18 6 34t43 16h125v372q0 18 15.5 33.5t33.5 15.5q20 0 36.5 -15t16.5 -34v-372h130q18 0 33.5 -15.5t15.5 -34.5q0 -18 -15.5 -33.5t-33.5 -15.5h-130v-731q0 -37 28 -55.5t46 -18.5t34.5 -16t16.5 -35q0 -18 -16 -33.5t-35 -15.5q-76 0 -126 49t-50 125v731 h-125q-37 0 -43 15.5t-6 33.5z" />
<glyph unicode="u" d="M170 410v546q0 23 14.5 36.5t34.5 13.5t34.5 -13.5t14.5 -36.5v-546q0 -66 24.5 -122.5t65.5 -98.5t97.5 -66.5t119.5 -24.5t121 24.5t100 66.5t66.5 98.5t24.5 122.5v546q0 23 15.5 36.5t33.5 13.5q23 0 37 -13.5t14 -36.5v-546q0 -84 -31.5 -159t-88 -130t-131 -88 t-161.5 -33q-84 0 -157.5 33t-129 88t-87 130t-31.5 159z" />
<glyph unicode="v" horiz-adv-x="1191" d="M115 946q0 8 4 18q8 18 24 27q9 4 18.5 4t19.5 -4q20 -8 26 -26l334 -791l333 791q6 18 26 26q10 4 19.5 4t18.5 -4q18 -9 26 -27q4 -9 3 -17q0 -9 -4 -19l-375 -889q-4 -12 -13 -25q-12 -14 -32 -14q-10 0 -17 2q-2 0 -4 2q-2 0 -10 4q-12 12 -16 23l-377 897 q-4 9 -4 18z" />
<glyph unicode="w" horiz-adv-x="1763" d="M125 946q0 8 4 18q8 18 25 27q9 4 18.5 4t19.5 -4q20 -8 25 -26l334 -791l231 551q14 31 47 31q35 0 50 -31l231 -551l332 791q8 18 28 26q10 4 18.5 4t16.5 -4q19 -9 27 -27q4 -10 4 -18q0 -9 -4 -18l-375 -893q-6 -16 -18 -25q-14 -10 -25 -10h-4h-6q-12 2 -23.5 10 t-15.5 21l-2 2l-234 555l-231 -553q-2 -2 -2 -4q-4 -14 -17.5 -22.5t-25.5 -8.5q-6 0 -18 4q-4 0 -9 4q-14 6 -20 23l-377 897q-4 9 -4 18z" />
<glyph unicode="x" horiz-adv-x="1167" d="M143 49q0 16 9 29l307 420l-307 422q-9 16 -9 32q1 4 1 6q2 20 18 31q12 8 27 8q3 0 9 -1q20 -3 31 -19l291 -395l289 395q11 16 31 19q4 1 9 1q14 0 25 -8q18 -11 22 -31q1 -5 0 -11q0 -14 -7 -27l-309 -422l309 -420q8 -12 8 -27q0 -5 -1 -9q-3 -20 -22 -32 q-10 -10 -24 -10q-29 0 -41 20l-289 396l-291 -396q-12 -20 -39 -20q-12 0 -28 10q-16 12 -18 32q0 4 -1 7z" />
<glyph unicode="y" horiz-adv-x="1204" d="M106 412v544q0 20 14.5 34t33.5 14q23 0 37 -13.5t14 -34.5v-544q0 -66 24.5 -122.5t65.5 -97t97.5 -65.5t119.5 -25t120.5 25t99.5 65.5t66.5 97t24.5 122.5v544q0 16 8 25q0 2 1.5 3t1.5 3q2 0 2 1t2 1q6 8 18 12h4q2 0 3 1.5t3 1.5h6h7q8 -2 24 -11q4 -4 7 -8t5 -8 q6 -10 7 -21v-544v-19v-313q0 -98 -38 -184t-102.5 -149.5t-151.5 -100.5t-186 -37q-55 0 -107 12t-99 35q-16 10 -23.5 29.5t2.5 35.5q10 18 27.5 23.5t36.5 1.5q78 -39 163 -39q78 0 146.5 28.5t120 80t82 119t30.5 145.5v65q-57 -66 -137 -104.5t-174 -38.5 q-84 0 -157.5 33t-129 88t-87.5 130t-32 159z" />
<glyph unicode="z" horiz-adv-x="1134" d="M125 49v2q0 23 16 35l592 811h-559q-20 0 -34.5 14.5t-14.5 34.5q0 23 14.5 36t34.5 13h649h5q14 0 30 -8l6 -6l2 -2q14 -14 14 -30q0 -7 -3 -15q-4 -18 -19 -27l-590 -809h561q20 0 35 -13t15 -36t-14.5 -36t-35.5 -13h-655q-35 0 -45 29l-2 2q-2 6 -2 18z" />
<glyph unicode="{" horiz-adv-x="983" d="M113 588q0 39 49 39q80 0 130 18.5t78.5 52t39 81.5t10.5 108v162q0 80 15.5 144t60.5 114.5t125.5 88.5t209.5 64q16 4 29.5 -5t13.5 -28q0 -12 -7 -20t-17 -12q-111 -29 -176.5 -60.5t-99 -72.5t-44 -95.5t-10.5 -130.5v-153q0 -68 -15.5 -117t-43 -84t-66.5 -57.5 t-88 -36.5q51 -16 91 -39t67 -56.5t41 -83t14 -116.5v-154q0 -76 10.5 -130t44 -95t99 -72.5t176.5 -60.5q10 -4 17 -12.5t7 -20.5q0 -18 -13.5 -27.5t-29.5 -5.5q-129 27 -209.5 65t-125.5 88t-60.5 114.5t-15.5 144.5v162q0 59 -10.5 107t-39 82t-78.5 52.5t-130 18.5 q-49 0 -49 39z" />
<glyph unicode="|" horiz-adv-x="585" d="M248 -225v1822q0 18 13 31.5t32 13.5q18 0 31.5 -13t13.5 -32v-1822q0 -18 -13.5 -31.5t-31.5 -13.5t-31.5 13t-13.5 32z" />
<glyph unicode="}" horiz-adv-x="983" d="M109 -252q0 12 7 20.5t17 12.5q111 29 176.5 60.5t99 72.5t44 95t10.5 130v154q0 68 15.5 117t43 83.5t66.5 57t88 37.5q-51 16 -91 38.5t-66.5 56.5t-41 83t-14.5 117v153q0 76 -10.5 130.5t-44 95.5t-99 72.5t-176.5 60.5q-10 4 -17 12t-7 20q0 18 13.5 27.5t29.5 5.5 q129 -27 209.5 -64.5t125.5 -88t60.5 -115t15.5 -143.5v-162q0 -59 10.5 -107.5t39 -82t78.5 -52t130 -18.5q49 0 49 -39t-49 -39q-80 0 -130 -18.5t-78.5 -52.5t-39 -82t-10.5 -107v-162q0 -80 -15.5 -144.5t-60.5 -114.5t-125.5 -88t-209.5 -65q-16 -4 -29.5 5.5 t-13.5 27.5z" />
<glyph unicode="~" horiz-adv-x="942" d="M174 526q0 12 4 25q29 90 68 122t94 32q29 0 63.5 -13.5t70.5 -29t68.5 -28.5t59.5 -13q35 0 54.5 18t37.5 59q4 10 13.5 19.5t23.5 9.5q16 0 26.5 -9t10.5 -26q0 -12 -4 -24q-29 -90 -68 -122t-94 -32q-29 0 -63.5 13.5t-70.5 28.5t-68.5 28.5t-59.5 13.5 q-35 0 -54.5 -18.5t-37.5 -59.5q-4 -10 -12.5 -19t-24.5 -9t-26.5 9t-10.5 25z" />
<glyph unicode="&#xa1;" horiz-adv-x="516" d="M190 49v1028q0 23 14.5 37t35.5 14q23 0 37 -14t14 -37v-1028q0 -20 -14.5 -34.5t-36.5 -14.5q-20 0 -35 14.5t-15 34.5zM190 1335v49q0 20 14.5 35t35.5 15q23 0 37 -14.5t14 -35.5v-49q0 -20 -14.5 -34.5t-36.5 -14.5q-20 0 -35 14.5t-15 34.5z" />
<glyph unicode="&#xa2;" horiz-adv-x="1189" d="M127 723v4q0 111 41 209t112.5 174t169 120t209.5 44h31l27 139q4 16 16 28.5t33 12.5q25 0 40 -17.5t9 -45.5l-27 -131q86 -20 148.5 -62.5t116.5 -91.5q18 -18 18 -41t-13.5 -37t-35.5 -14q-23 0 -39 16q-47 45 -100.5 82t-118.5 53l-172 -884q37 -6 74 -7q98 0 179 41 t148 109q18 18 39 18q18 0 31.5 -14t13.5 -33q0 -18 -14 -33q-76 -80 -172 -131t-232 -51h-39.5t-39.5 4l-33 -164q-4 -16 -16.5 -28t-32.5 -12q-25 0 -40.5 17t-8.5 46l34 168q-80 27 -145.5 78t-112.5 118.5t-72.5 147.5t-25.5 168zM236 727q0 -145 75.5 -259t196.5 -163 l168 875h-19q-90 0 -166.5 -35t-133 -95.5t-89 -142.5t-32.5 -176v-4z" />
<glyph unicode="&#xa3;" horiz-adv-x="1318" d="M135 27q0 23 25 28l159 37v533h-135q-20 0 -34.5 14t-14.5 35q0 20 14.5 34.5t34.5 14.5h135v242q0 117 34 211t100 159q57 57 135 88t172 31q150 0 246 -55.5t163 -134.5q14 -18 15 -39q0 -23 -14.5 -36t-36.5 -13q-23 0 -41 18q-31 35 -64 65.5t-73 52t-88 34 t-109 12.5q-143 0 -232 -88q-102 -102 -102 -303v-244h569q20 0 34.5 -14.5t14.5 -34.5t-14 -34.5t-35 -14.5h-569v-529h725q20 0 34.5 -14t14.5 -35q0 -20 -14.5 -33.5t-34.5 -13.5h-987q-27 0 -27 27z" />
<glyph unicode="&#xa5;" horiz-adv-x="1404" d="M115 1383.5q2 21.5 18 31.5q16 14 38 11t32 -19l448 -616l451 616q10 16 31.5 19.5t37.5 -11.5q16 -10 19.5 -31.5t-8.5 -37.5l-422 -574h258q25 0 41 -16.5t16 -40.5q0 -23 -16.5 -39.5t-40.5 -16.5h-316v-204h316q25 0 41 -16.5t16 -39.5q0 -25 -16.5 -41t-40.5 -16 h-316v-293q0 -20 -13 -34.5t-36 -14.5q-20 0 -34.5 14.5t-14.5 34.5v293h-315q-25 0 -41.5 16.5t-16.5 40.5q0 23 16.5 39.5t41.5 16.5h315v204h-315q-25 0 -41.5 16.5t-16.5 39.5q0 25 16.5 41t41.5 16h254l-420 574q-10 16 -8 37.5z" />
<glyph unicode="&#xa8;" horiz-adv-x="1024" d="M272 1305q0 37 26 62.5t62 25.5q37 0 63 -26t26 -62q0 -37 -26 -62.5t-63 -25.5t-62.5 25.5t-25.5 62.5zM610 1305q0 37 26 62.5t62 25.5q37 0 62.5 -26t25.5 -62q0 -37 -25.5 -62.5t-62.5 -25.5t-62.5 25.5t-25.5 62.5z" />
<glyph unicode="&#xa9;" horiz-adv-x="1699" d="M109 713v4q0 152 57 286t157.5 235t236.5 160.5t292 59.5t291 -58.5t234.5 -158.5t156.5 -234.5t57 -285.5v-4q0 -152 -57 -286t-157.5 -235.5t-236.5 -161t-292 -59.5t-291 58.5t-234.5 159t-156.5 234.5t-57 286zM170 713q0 -141 51 -265t142.5 -216.5t215.5 -145.5 t269 -53t270 54t216 147.5t143.5 217t52.5 265.5v4q0 141 -51.5 265t-142.5 216t-215 145.5t-269 53.5t-270 -54.5t-216.5 -147.5t-143.5 -217t-52 -265v-4zM485 725v4q0 78 29 148.5t80 124t118.5 84t147.5 30.5q92 0 153.5 -29.5t110.5 -72.5q18 -14 19 -37 q0 -18 -13.5 -30.5t-31.5 -12.5q-14 0 -33 14q-41 35 -91 60.5t-116 25.5q-61 0 -112.5 -23.5t-89.5 -65.5t-59.5 -97t-21.5 -117v-4q0 -61 23 -117.5t60.5 -97.5t90 -65.5t111.5 -24.5q70 0 120 23.5t97 66.5q4 4 11.5 7t17.5 3q16 0 28.5 -12t12.5 -29q0 -20 -14 -30 q-57 -49 -120 -80t-155 -31q-80 0 -147.5 30.5t-117.5 83t-79 122t-29 149.5z" />
<glyph unicode="&#xaa;" horiz-adv-x="798" d="M119 1098q0 66 23.5 123t64.5 100t95 68.5t118 25.5q74 0 136 -33.5t103 -91.5v94q0 12 9.5 21.5t21.5 9.5t22.5 -9t10.5 -22v-575q0 -12 -10.5 -21.5t-22.5 -9.5t-21.5 9.5t-9.5 21.5v96q-41 -57 -103 -92t-136 -35q-63 0 -117.5 25.5t-95.5 68.5t-64.5 101.5 t-23.5 124.5zM176 641q0 16 12.5 28.5t28.5 12.5h451q16 0 28.5 -12.5t12.5 -28.5t-12.5 -28.5t-28.5 -12.5h-451q-16 0 -28.5 12.5t-12.5 28.5zM182 1098q0 -55 19.5 -101.5t51.5 -81t75 -54t92 -19.5t93 19.5t77 54t51 80.5t18 102q0 53 -18 99t-51 81t-77 55.5t-93 20.5 t-92 -20.5t-75 -55.5t-51.5 -81t-19.5 -99z" />
<glyph unicode="&#xab;" horiz-adv-x="1054" d="M113 522q0 18 20 45l281 367q16 23 39 22q18 0 31.5 -12t13.5 -31q0 -20 -13 -34l-258 -355l258 -358q12 -16 13 -35q0 -18 -13.5 -30.5t-31.5 -12.5q-23 0 -39 23l-281 366q-20 27 -20 45zM530 522q0 18 21 45l280 367q16 23 39 22q18 0 31.5 -12t13.5 -31 q0 -20 -12 -34l-258 -355l258 -358q12 -18 12 -35q-2 -18 -14.5 -30.5t-30.5 -12.5q-23 0 -39 23l-280 366q-20 27 -21 45z" />
<glyph unicode="&#xad;" horiz-adv-x="835" d="M135 713q0 37 39 37h436q16 0 27.5 -10.5t11.5 -26.5q0 -18 -11 -29.5t-28 -11.5h-436q-39 0 -39 41z" />
<glyph unicode="&#xae;" horiz-adv-x="851" d="M70 1094v2q0 74 27.5 138t75.5 113.5t113.5 78t139.5 28.5q76 0 140.5 -28.5t112.5 -77t75.5 -113t27.5 -137.5v-2q0 -74 -27.5 -138.5t-75.5 -113.5t-113.5 -78t-139.5 -29q-76 0 -140.5 29t-112.5 77t-75.5 112.5t-27.5 138.5zM111 1094q0 -66 23.5 -123.5t66.5 -100.5 t100 -68.5t125 -25.5t125 25.5t99 68.5t66.5 101.5t24.5 124.5v2q0 66 -23.5 123t-66.5 100t-100 68.5t-125 25.5t-125 -25.5t-99 -68.5t-66.5 -101.5t-24.5 -123.5v-2zM295 881q0 -16 16 -17q16 0 17 17v178h108l2 -2q6 -2 21.5 -7.5t32.5 -15.5q16 -10 26 -26.5t10 -42.5 q1 -54 13 -74q4 -10 13 -15.5t15 -5.5h2q2 0 4.5 1t4.5 1q12 4 8 21q-4 10 -17 10l-2 2q-4 4 -4 8q-6 14 -6 52q0 39 -19.5 64.5t-41.5 37.5q-4 0 -6 2q33 16 53 47t20 70q0 53 -36.5 91t-90.5 38h-125h-2h-2q-14 0 -14 -17v-417zM328 1090v192h110q41 0 69 -27.5t28 -68.5 q0 -39 -28 -67.5t-67 -28.5h-6h-106z" />
<glyph unicode="&#xb0;" horiz-adv-x="921" d="M152 1143v4q0 59 25.5 113.5t68.5 95.5t98 65.5t117 24.5q61 0 116.5 -24.5t98.5 -65.5t68.5 -95.5t25.5 -113.5v-4q0 -59 -25.5 -113.5t-68.5 -95.5t-98.5 -65.5t-116.5 -24.5t-116.5 24.5t-98.5 65.5t-68.5 95t-25.5 114zM254 1143q0 -41 15.5 -79t43 -66.5t65.5 -46 t83 -17.5t83 17.5t65.5 46t43 66.5t15.5 79v4q0 41 -15.5 79t-43 66.5t-65.5 46t-83 17.5t-83 -17.5t-65.5 -46t-43 -66.5t-15.5 -79v-4z" />
<glyph unicode="&#xb2;" horiz-adv-x="811" />
<glyph unicode="&#xb4;" horiz-adv-x="1024" d="M412 1231q0 10 8 22l127 191q25 37 57 37q29 0 57.5 -15.5t28.5 -31.5q0 -14 -22 -37l-164 -158q-18 -16 -32 -21.5t-34 -5.5q-27 0 -26 19z" />
<glyph unicode="&#xb6;" horiz-adv-x="983" d="M109 999v5q0 100 38.5 180t109.5 135t168 85t214 30h96q23 0 39.5 -16.5t16.5 -39.5v-1333q0 -23 -15.5 -38t-38.5 -15t-39 15.5t-16 37.5v522h-12q-119 0 -221.5 29t-178 84t-118.5 135t-43 184z" />
<glyph unicode="&#xb7;" horiz-adv-x="471" d="M168 582v55q0 29 19.5 48.5t48.5 19.5t48 -19.5t19 -48.5v-55q0 -29 -19.5 -48.5t-47.5 -19.5q-29 0 -48.5 19.5t-19.5 48.5z" />
<glyph unicode="&#xb8;" horiz-adv-x="1024" d="M348 -242q0 12 10 31l158 231h88l-133 -270q-10 -18 -20.5 -29.5t-32.5 -11.5q-25 0 -47.5 16.5t-22.5 32.5z" />
<glyph unicode="&#xba;" horiz-adv-x="798" d="M96 641q0 16 12.5 28.5t28.5 12.5h525q16 0 28 -12.5t12 -28.5t-12 -28.5t-28 -12.5h-525q-16 0 -28.5 12.5t-12.5 28.5zM104 1139v4q0 61 23 115.5t61.5 95.5t93 65.5t119.5 24.5q63 0 117.5 -23.5t93.5 -64.5t60.5 -95.5t21.5 -113.5v-4q0 -61 -22.5 -115.5 t-61.5 -95.5t-94.5 -65.5t-118.5 -24.5t-117.5 23.5t-93.5 64.5t-60.5 95t-21.5 114zM193 1143q0 -47 16 -87t44 -70t65.5 -47t82.5 -17q92 0 148.5 63.5t56.5 153.5v4q0 45 -16.5 86t-44 70.5t-65.5 47t-83 17.5q-92 0 -148 -63.5t-56 -153.5v-4z" />
<glyph unicode="&#xbb;" horiz-adv-x="1054" d="M139 131q0 18 13 35l258 354l-258 359q-6 10 -10.5 17t-2.5 17q2 18 14.5 30.5t30.5 12.5q23 0 39 -22l281 -367q20 -27 20 -45t-20 -45l-281 -366q-16 -23 -39 -23q-18 0 -31.5 12.5t-13.5 30.5zM557 131q0 18 12 35l258 354l-258 359q-12 14 -12 34q0 18 13.5 30.5 t31.5 12.5q23 0 39 -22l281 -367q20 -27 20 -45t-20 -45l-281 -366q-16 -23 -39 -23q-18 0 -31.5 12.5t-13.5 30.5z" />
<glyph unicode="&#xbf;" horiz-adv-x="1093" d="M115 256.5q4 19.5 22 30.5q16 10 36 5t30 -22q45 -80 122.5 -127t176.5 -47q72 0 135 28t110.5 75t74 109.5t26.5 135.5q0 72 -26.5 134.5t-74 109.5t-111 75t-134.5 28q-18 0 -32.5 13t-14.5 34v2v6v256q0 20 14 33.5t33 13.5q20 0 34.5 -13.5t14.5 -33.5v-219 q82 -10 154.5 -48t125 -96.5t83 -134.5t30.5 -160q0 -92 -35 -173t-95 -141t-140 -95t-172 -35q-123 0 -223.5 60.5t-157.5 160.5q-10 16 -6 35.5zM455 1341v45q0 20 14 34t33 14q20 0 34.5 -13.5t14.5 -34.5v-45q0 -20 -14.5 -34.5t-34.5 -14.5q-18 0 -32.5 14.5 t-14.5 34.5z" />
<glyph unicode="&#xc0;" horiz-adv-x="1329" d="M123 68q-8 -18 1 -38t28 -28q4 0 9 -1t9 -1q35 0 47 33l127 338h653l127 -338q6 -16 19.5 -24.5t27.5 -8.5q4 0 8.5 1t10.5 1q18 8 26.5 27.5t0.5 38.5l-498 1329q-10 31 -49 30q-35 0 -49 -30zM381 471l291 770l289 -770h-580zM530 1843q0 16 29 31.5t57 15.5 q33 0 58 -37l127 -190q8 -12 8 -23q0 -18 -27 -18q-20 0 -33.5 5t-31.5 22l-164 157q-23 23 -23 37z" />
<glyph unicode="&#xc1;" horiz-adv-x="1323" d="M123 68q-8 -18 1 -38t28 -28q4 0 9 -1t9 -1q35 0 47 33l127 338h653l127 -338q6 -16 19.5 -24.5t27.5 -8.5q4 0 8.5 1t10.5 1q18 8 26.5 27.5t0.5 38.5l-498 1329q-10 31 -49 30q-35 0 -49 -30zM381 471l291 770l289 -770h-580zM532 1640q0 10 9 23l127 190q25 37 57 37 q29 0 57.5 -15t28.5 -32q0 -14 -23 -37l-163 -157q-18 -16 -32 -21.5t-34 -5.5q-27 0 -27 18z" />
<glyph unicode="&#xc2;" horiz-adv-x="1359" d="M125 68q-8 -18 1 -38t28 -28q4 0 9 -1t9 -1q35 0 47 33l127 338h653l127 -338q6 -16 19.5 -24.5t28.5 -8.5q4 0 8 1t10 1q18 8 26.5 27.5t0.5 38.5l-498 1329q-10 31 -49 30q-35 0 -49 -30zM383 471l291 770l289 -770h-580zM451 1642q0 12 10 25l147 180q14 16 26.5 26.5 t31.5 10.5h16q18 0 30.5 -10t26.5 -27l148 -180q10 -12 10 -25q0 -20 -29 -20q-20 0 -34.5 5t-32.5 22l-129 118l-129 -118q-18 -16 -31.5 -21.5t-34.5 -5.5q-27 0 -26 20z" />
<glyph unicode="&#xc3;" horiz-adv-x="1359" d="M125 68q-8 -18 1 -38t28 -28q4 0 9 -1t9 -1q35 0 47 33l127 338h653l127 -338q6 -16 19.5 -24.5t28.5 -8.5q4 0 8 1t10 1q18 8 26.5 27.5t0.5 38.5l-498 1329q-10 31 -49 30q-35 0 -49 -30zM377 1640q0 12 4 25q29 90 67.5 122t94.5 32q29 0 63.5 -13.5t70.5 -29 t68.5 -28.5t59.5 -13q35 0 54.5 18.5t37.5 58.5q4 10 13.5 19.5t23.5 9.5q16 0 26.5 -9t10.5 -26q0 -12 -4 -24q-29 -90 -68 -122t-94 -32q-29 0 -63.5 13.5t-70.5 29t-69 28.5t-59 13q-35 0 -54.5 -18.5t-37.5 -59.5q-4 -10 -12.5 -19t-24.5 -9t-26.5 9t-10.5 25zM383 471 l291 770l289 -770h-580z" />
<glyph unicode="&#xc4;" horiz-adv-x="1357" d="M125 68q-8 -18 1 -38t28 -28q4 0 9 -1t9 -1q35 0 47 33l127 338h653l127 -338q6 -16 19.5 -24.5t28.5 -8.5q4 0 8 1t10 1q18 8 26.5 27.5t0.5 38.5l-498 1329q-10 31 -49 30q-35 0 -49 -30zM383 471l291 770l289 -770h-580zM418 1714q0 37 25.5 62.5t62.5 25.5 t62.5 -25.5t25.5 -62.5t-25.5 -62.5t-62.5 -25.5t-62.5 25.5t-25.5 62.5zM756 1714q0 37 25.5 62.5t62.5 25.5t62.5 -25.5t25.5 -62.5t-25.5 -62.5t-62.5 -25.5t-62.5 25.5t-25.5 62.5z" />
<glyph unicode="&#xc5;" horiz-adv-x="1323" d="M98 68l461 1228q-41 23 -66.5 64t-25.5 88v2q0 37 15.5 69.5t41 57.5t58 39t67.5 14q37 0 72 -14t60.5 -39t41 -57.5t15.5 -69.5v-2q0 -49 -29 -92t-76 -66l459 -1222q8 -18 0 -38t-27 -28q-6 0 -10 -1t-8 -1q-14 0 -27.5 8t-19.5 25l-127 338h-654l-126 -338 q-12 -33 -48 -33q-4 0 -9 1t-9 1q-18 8 -27.5 27.5t-1.5 38.5zM356 471h580l-289 770zM555 1448q0 -43 33 -70q29 -25 61 -24q29 0 56 16q45 27 45 78v2q0 39 -28 69.5t-73 30.5q-39 0 -66.5 -30.5t-27.5 -69.5v-2z" />
<glyph unicode="&#xc6;" horiz-adv-x="2140" d="M72 39q0 12 10 29l807 1333q10 16 21.5 24.5t31.5 8.5h1018q20 0 34.5 -14.5t14.5 -35.5q0 -20 -14.5 -34.5t-34.5 -14.5h-842v-563h750q20 0 34.5 -14.5t14.5 -34.5t-14.5 -34.5t-34.5 -14.5h-750v-576h852q20 0 34.5 -14t14.5 -35q0 -20 -14 -34.5t-35 -14.5h-905 q-23 0 -38 15.5t-15 37.5v348h-615l-231 -385q-16 -27 -45 -26q-20 0 -34.5 14.5t-14.5 34.5zM455 498h557v839h-54z" />
<glyph unicode="&#xc7;" horiz-adv-x="1579" d="M150 723q0 154 58 287t159.5 231t237.5 155.5t290 57.5q133 0 251 -43t212 -115q16 -14 19 -35.5t-11 -35.5q-12 -18 -32.5 -20.5t-37.5 9.5q-84 66 -185 103t-216 37q-135 0 -252 -49.5t-205 -135.5t-138 -200.5t-50 -245.5q0 -129 50 -241.5t138 -197.5t205 -134.5 t252 -49.5q115 0 216 36t181 104q18 12 40 9t32 -22q16 -14 13 -36.5t-19 -34.5q-94 -72 -212 -114t-251 -42q-154 0 -290 56.5t-237.5 154.5t-159.5 230t-58 282zM662 -242q0 12 10 31l157 231h89l-134 -270q-10 -18 -20 -29.5t-33 -11.5q-25 0 -47 16.5t-22 32.5z" />
<glyph unicode="&#xc8;" horiz-adv-x="1214" d="M213 49q0 -20 13.5 -33.5t31.5 -15.5h4h6h731q23 0 36.5 14.5t13.5 34.5q0 23 -13.5 37t-36.5 14h-686v566h600q20 0 35 14t15 35q0 23 -14.5 37t-35.5 14h-600v567h686q23 0 36.5 14.5t13.5 36.5q0 20 -13.5 35t-36.5 15h-733h-4q-20 0 -34.5 -14.5t-14.5 -35.5v-1335z M494 1843q0 16 28.5 31.5t57.5 15.5q33 0 57 -37l127 -190q8 -12 8 -23q0 -18 -27 -18q-20 0 -33.5 5t-31.5 22l-164 157q-23 23 -22 37z" />
<glyph unicode="&#xc9;" horiz-adv-x="1214" d="M213 49q0 -20 13.5 -33.5t31.5 -15.5h4h6h731q23 0 36.5 14.5t13.5 34.5q0 23 -13.5 37t-36.5 14h-686v566h600q20 0 35 14t15 35q0 23 -14.5 37t-35.5 14h-600v567h686q23 0 36.5 14.5t13.5 36.5q0 20 -13.5 35t-36.5 15h-733h-4q-20 0 -34.5 -14.5t-14.5 -35.5v-1335z M487 1640q0 10 9 23l127 190q25 37 57 37q29 0 57.5 -15t28.5 -32q0 -14 -23 -37l-163 -157q-18 -16 -32 -21.5t-34 -5.5q-27 0 -27 18z" />
<glyph unicode="&#xca;" horiz-adv-x="1214" d="M213 49q0 -20 13.5 -33.5t31.5 -15.5h4h6h731q23 0 36.5 14.5t13.5 34.5q0 23 -13.5 37t-36.5 14h-686v566h600q20 0 35 14t15 35q0 23 -14.5 37t-35.5 14h-600v567h686q23 0 36.5 14.5t13.5 36.5q0 20 -13.5 35t-36.5 15h-733h-4q-20 0 -34.5 -14.5t-14.5 -35.5v-1335z M403 1642q0 12 11 25l147 180q14 16 26.5 26.5t30.5 10.5h17q18 0 30.5 -10t26.5 -27l148 -180q10 -12 10 -25q0 -20 -29 -20q-20 0 -34.5 5t-32.5 22l-129 118l-129 -118q-18 -16 -31.5 -21.5t-34.5 -5.5q-27 0 -27 20z" />
<glyph unicode="&#xcb;" horiz-adv-x="1372" d="M213 49q0 -20 13.5 -33.5t31.5 -15.5h4h6h731q23 0 36.5 14.5t13.5 34.5q0 23 -13.5 37t-36.5 14h-686v566h600q20 0 35 14t15 35q0 23 -14.5 37t-35.5 14h-600v567h686q23 0 36.5 14.5t13.5 36.5q0 20 -13.5 35t-36.5 15h-733h-4q-20 0 -34.5 -14.5t-14.5 -35.5v-1335z M371 1714q0 37 25.5 62.5t62.5 25.5t62.5 -25.5t25.5 -62.5t-25.5 -62.5t-62.5 -25.5t-62.5 25.5t-25.5 62.5zM709 1714q0 37 25.5 62.5t62.5 25.5t62.5 -25.5t25.5 -62.5t-25.5 -62.5t-62.5 -25.5t-62.5 25.5t-25.5 62.5z" />
<glyph unicode="&#xcc;" horiz-adv-x="712" d="M303 1843q0 16 28.5 31.5t57.5 15.5q33 0 57 -37l127 -190q8 -12 9 -23q0 -18 -27 -18q-20 0 -33.5 5t-32.5 22l-163 157q-23 23 -23 37zM391 49q0 -20 14.5 -34.5t34.5 -14.5q23 0 37.5 14.5t14.5 34.5v1335q0 20 -14.5 35t-37.5 15q-20 0 -34.5 -14.5t-14.5 -35.5 v-1335z" />
<glyph unicode="&#xcd;" horiz-adv-x="561" d="M170 1640q0 10 8 23l127 190q25 37 57 37q29 0 58 -15t29 -32q0 -14 -23 -37l-164 -157q-18 -16 -31.5 -21.5t-33.5 -5.5q-27 0 -27 18zM260 49q0 -20 14.5 -34.5t34.5 -14.5q23 0 37 14.5t14 34.5v1335q0 20 -14 35t-37 15q-20 0 -34.5 -14.5t-14.5 -35.5v-1335z" />
<glyph unicode="&#xce;" horiz-adv-x="561" d="M2 1642q0 12 10 25l148 180q14 16 26.5 26.5t30.5 10.5h16q18 0 30.5 -10t27.5 -27l147 -180q10 -12 11 -25q0 -20 -29 -20q-20 0 -34.5 5t-33.5 22l-129 118l-129 -118q-18 -16 -31.5 -21.5t-33.5 -5.5q-27 0 -27 20zM176 49q0 -20 14.5 -34.5t34.5 -14.5q23 0 37 14.5 t14 34.5v1335q0 20 -14 35t-37 15q-20 0 -34.5 -14.5t-14.5 -35.5v-1335z" />
<glyph unicode="&#xcf;" horiz-adv-x="561" d="M-16 1714q0 37 25.5 62.5t62.5 25.5t62.5 -25.5t25.5 -62.5t-25.5 -62.5t-62.5 -25.5t-62.5 25.5t-25.5 62.5zM190 49q0 -20 14.5 -34.5t35.5 -14.5q23 0 37 14.5t14 34.5v1335q0 20 -14.5 35t-36.5 15q-20 0 -35 -14.5t-15 -35.5v-1335zM322 1714q0 37 25.5 62.5 t62.5 25.5t62.5 -25.5t25.5 -62.5t-26 -62.5t-62 -25.5q-37 0 -62.5 25.5t-25.5 62.5z" />
<glyph unicode="&#xd0;" horiz-adv-x="1662" d="M113 717q0 37 39 37h172v630q0 20 14 35t35 15h268q147 0 278.5 -56.5t228.5 -155t153.5 -229.5t56.5 -278t-56.5 -278.5t-153.5 -227.5t-228.5 -152.5t-278.5 -56.5h-272q-18 2 -31.5 15.5t-13.5 33.5v627h-172q-39 0 -39 41zM424 100h217q127 0 239.5 48.5t196.5 131 t132 195.5t48 240q0 129 -48 240.5t-132 195.5t-196.5 133t-239.5 49h-217v-579h164q16 0 27.5 -10.5t11.5 -26.5q0 -18 -11.5 -29.5t-27.5 -11.5h-164v-576z" />
<glyph unicode="&#xd1;" horiz-adv-x="1617" d="M219 49q0 -20 14.5 -34.5t34.5 -14.5t34.5 14.5t14.5 34.5v1174l861 -1196q2 -4 4 -5.5t4 -3.5q14 -18 39 -18q23 0 37 14.5t14 34.5v1321q0 20 -14.5 34.5t-36.5 14.5q-20 0 -34.5 -14t-14.5 -35v-1167l-869 1204q-10 16 -31.5 19.5t-37.5 -7.5q-29 -23 -19 -55v-1315z M449 1640q0 12 4 25q29 90 67.5 122t93.5 32q29 0 64 -13.5t70.5 -29t68.5 -28.5t60 -13q35 0 54 18.5t38 58.5q4 10 13 19.5t24 9.5q16 0 26 -9t10 -26q0 -12 -4 -24q-29 -90 -67.5 -122t-93.5 -32q-29 0 -64 13.5t-70.5 29t-68.5 28.5t-60 13q-35 0 -54.5 -18.5 t-37.5 -59.5q-4 -10 -12 -19t-25 -9q-16 0 -26 9t-10 25z" />
<glyph unicode="&#xd2;" horiz-adv-x="1740" d="M150 727q0 -152 54 -284t147 -230t219 -155.5t272 -57.5q143 0 268 57.5t217 155.5t146.5 230t54.5 284q0 150 -54.5 283t-146.5 231t-217 155.5t-268 57.5q-145 0 -271.5 -57.5t-219.5 -155.5t-147 -231t-54 -283zM250 727q0 133 47 246.5t127 197.5t187.5 132.5 t230.5 48.5q119 0 224 -48.5t185 -132.5t127 -197.5t47 -246.5q0 -131 -47 -245.5t-127 -198.5t-185 -133.5t-224 -49.5q-123 0 -230.5 49.5t-187.5 133.5t-127 198.5t-47 245.5zM700 1843q0 16 29 31.5t57 15.5q33 0 58 -37l127 -190q8 -12 8 -23q0 -18 -27 -18 q-20 0 -33.5 5t-31.5 22l-164 157q-23 23 -23 37z" />
<glyph unicode="&#xd3;" horiz-adv-x="1740" d="M150 727q0 -152 54 -284t147 -230t219 -155.5t272 -57.5q143 0 268 57.5t217 155.5t146.5 230t54.5 284q0 150 -54.5 283t-146.5 231t-217 155.5t-268 57.5q-145 0 -271.5 -57.5t-219.5 -155.5t-147 -231t-54 -283zM250 727q0 133 47 246.5t127 197.5t187.5 132.5 t230.5 48.5q119 0 224 -48.5t185 -132.5t127 -197.5t47 -246.5q0 -131 -47 -245.5t-127 -198.5t-185 -133.5t-224 -49.5q-123 0 -230.5 49.5t-187.5 133.5t-127 198.5t-47 245.5zM696 1640q0 10 9 23l126 190q25 37 58 37q29 0 57.5 -15t28.5 -32q0 -14 -23 -37l-164 -157 q-18 -16 -31.5 -21.5t-33.5 -5.5q-27 0 -27 18z" />
<glyph unicode="&#xd4;" horiz-adv-x="1740" d="M150 727q0 -152 54 -284t147 -230t219 -155.5t272 -57.5q143 0 268 57.5t217 155.5t146.5 230t54.5 284q0 150 -54.5 283t-146.5 231t-217 155.5t-268 57.5q-145 0 -271.5 -57.5t-219.5 -155.5t-147 -231t-54 -283zM250 727q0 133 47 246.5t127 197.5t187.5 132.5 t230.5 48.5q119 0 224 -48.5t185 -132.5t127 -197.5t47 -246.5q0 -131 -47 -245.5t-127 -198.5t-185 -133.5t-224 -49.5q-123 0 -230.5 49.5t-187.5 133.5t-127 198.5t-47 245.5zM616 1642q0 12 11 25l147 180q14 16 26.5 26.5t30.5 10.5h17q18 0 30.5 -10t26.5 -27 l148 -180q10 -12 10 -25q0 -20 -29 -20q-20 0 -34.5 5t-32.5 22l-129 118l-129 -118q-18 -16 -31.5 -21.5t-34.5 -5.5q-27 0 -27 20z" />
<glyph unicode="&#xd5;" horiz-adv-x="1740" d="M150 727q0 -152 54 -284t147 -230t219 -155.5t272 -57.5q143 0 268 57.5t217 155.5t146.5 230t54.5 284q0 150 -54.5 283t-146.5 231t-217 155.5t-268 57.5q-145 0 -271.5 -57.5t-219.5 -155.5t-147 -231t-54 -283zM250 727q0 133 47 246.5t127 197.5t187.5 132.5 t230.5 48.5q119 0 224 -48.5t185 -132.5t127 -197.5t47 -246.5q0 -131 -47 -245.5t-127 -198.5t-185 -133.5t-224 -49.5q-123 0 -230.5 49.5t-187.5 133.5t-127 198.5t-47 245.5zM541 1640q0 12 4 25q29 90 67.5 122t94.5 32q29 0 63.5 -13.5t70.5 -29t68.5 -28.5t59.5 -13 q35 0 54 18.5t38 58.5q4 10 13 19.5t24 9.5q16 0 26.5 -9t10.5 -26q0 -12 -5 -24q-29 -90 -67.5 -122t-93.5 -32q-29 0 -64 13.5t-70.5 29t-68.5 28.5t-59 13q-35 0 -55 -18.5t-38 -59.5q-4 -10 -12 -19t-24 -9t-26.5 9t-10.5 25z" />
<glyph unicode="&#xd6;" horiz-adv-x="1740" d="M150 727q0 -152 54 -284t147 -230t219 -155.5t272 -57.5q143 0 268 57.5t217 155.5t146.5 230t54.5 284q0 150 -54.5 283t-146.5 231t-217 155.5t-268 57.5q-145 0 -271.5 -57.5t-219.5 -155.5t-147 -231t-54 -283zM250 727q0 133 47 246.5t127 197.5t187.5 132.5 t230.5 48.5q119 0 224 -48.5t185 -132.5t127 -197.5t47 -246.5q0 -131 -47 -245.5t-127 -198.5t-185 -133.5t-224 -49.5q-123 0 -230.5 49.5t-187.5 133.5t-127 198.5t-47 245.5zM582 1714q0 37 25.5 62.5t62.5 25.5t62.5 -25.5t25.5 -62.5t-25.5 -62.5t-62.5 -25.5 t-62.5 25.5t-25.5 62.5zM920 1714q0 37 25.5 62.5t62.5 25.5t62.5 -25.5t25.5 -62.5t-26 -62.5t-62 -25.5q-37 0 -62.5 25.5t-25.5 62.5z" />
<glyph unicode="&#xd7;" horiz-adv-x="1269" d="M205 340q0 20 16 37l346 342l-344 340q-18 18 -18 41t14 37t37 14t41 -18l340 -345l342 347q16 16 37 16q20 0 34.5 -14.5t14.5 -34.5t-16 -37l-347 -342l345 -340q18 -18 18 -41t-14.5 -37t-36.5 -14q-23 0 -41 18l-340 344l-342 -346q-16 -16 -37 -16q-20 0 -34.5 14 t-14.5 35z" />
<glyph unicode="&#xd8;" horiz-adv-x="1740" d="M150 713v4q0 147 52 281.5t146 236.5t227.5 162.5t296.5 60.5q141 0 258 -46t209 -124l138 148q16 16 36 16q18 0 30.5 -12.5t12.5 -30.5q0 -20 -12 -33l-141 -151q92 -100 140 -230.5t48 -273.5v-4q0 -147 -52 -281.5t-146.5 -237t-228.5 -163t-296 -60.5 q-141 0 -257.5 45.5t-209.5 122.5l-137 -145q-16 -16 -37 -16q-18 0 -30.5 12t-12.5 31q0 20 13 32l139 150q-90 102 -138 232t-48 274zM260 717q0 -125 40 -234.5t112 -195.5l858 921q-78 72 -180.5 113t-221.5 41q-133 0 -244.5 -50t-192.5 -137.5t-126 -204t-45 -249.5 v-4zM469 225q80 -72 182 -112.5t221 -40.5q133 0 245 50t193 137t126 204t45 250v4q0 123 -40 232.5t-112 195.5z" />
<glyph unicode="&#xd9;" horiz-adv-x="1556" d="M190 580q0 -121 46.5 -226.5t124 -183.5t183 -124t224.5 -46q121 0 226.5 46t184 124t125 183.5t46.5 226.5v804q0 20 -14.5 35t-37.5 15q-20 0 -34.5 -14.5t-14.5 -35.5v-804q0 -98 -37.5 -185.5t-103.5 -153t-153 -103.5t-187 -38q-98 0 -185 38t-151.5 103.5 t-102.5 152.5t-38 186v804q0 20 -14.5 35t-36.5 15q-20 0 -35 -14.5t-15 -35.5v-804zM631 1843q0 16 28.5 31.5t57.5 15.5q33 0 57 -37l127 -190q8 -12 8 -23q1 -18 -26 -18q-20 0 -33.5 5t-32.5 22l-164 157q-23 23 -22 37z" />
<glyph unicode="&#xda;" horiz-adv-x="1556" d="M190 580q0 -121 46.5 -226.5t124 -183.5t183 -124t224.5 -46q121 0 226.5 46t184 124t125 183.5t46.5 226.5v804q0 20 -14.5 35t-37.5 15q-20 0 -34.5 -14.5t-14.5 -35.5v-804q0 -98 -37.5 -185.5t-103.5 -153t-153 -103.5t-187 -38q-98 0 -185 38t-151.5 103.5 t-102.5 152.5t-38 186v804q0 20 -14.5 35t-36.5 15q-20 0 -35 -14.5t-15 -35.5v-804zM631 1640q0 10 8 23l127 190q25 37 57 37q29 0 57.5 -15t28.5 -32q0 -14 -22 -37l-164 -157q-18 -16 -32 -21.5t-34 -5.5q-27 0 -26 18z" />
<glyph unicode="&#xdb;" horiz-adv-x="1556" d="M190 580q0 -121 46.5 -226.5t124 -183.5t183 -124t224.5 -46q121 0 226.5 46t184 124t125 183.5t46.5 226.5v804q0 20 -14.5 35t-37.5 15q-20 0 -34.5 -14.5t-14.5 -35.5v-804q0 -98 -37.5 -185.5t-103.5 -153t-153 -103.5t-187 -38q-98 0 -185 38t-151.5 103.5 t-102.5 152.5t-38 186v804q0 20 -14.5 35t-36.5 15q-20 0 -35 -14.5t-15 -35.5v-804zM549 1642q0 12 10 25l148 180q14 16 26 26.5t31 10.5h16q18 0 30.5 -10t27.5 -27l147 -180q10 -12 10 -25q0 -20 -28 -20q-20 0 -34.5 5t-33.5 22l-129 118l-129 -118 q-18 -16 -31.5 -21.5t-34.5 -5.5q-27 0 -26 20z" />
<glyph unicode="&#xdc;" horiz-adv-x="1556" d="M190 580q0 -121 46.5 -226.5t124 -183.5t183 -124t224.5 -46q121 0 226.5 46t184 124t125 183.5t46.5 226.5v804q0 20 -14.5 35t-37.5 15q-20 0 -34.5 -14.5t-14.5 -35.5v-804q0 -98 -37.5 -185.5t-103.5 -153t-153 -103.5t-187 -38q-98 0 -185 38t-151.5 103.5 t-102.5 152.5t-38 186v804q0 20 -14.5 35t-36.5 15q-20 0 -35 -14.5t-15 -35.5v-804zM514 1714q0 37 25.5 62.5t62.5 25.5t62.5 -25.5t25.5 -62.5t-25.5 -62.5t-62.5 -25.5t-62.5 25.5t-25.5 62.5zM852 1714q0 37 25.5 62.5t62.5 25.5t62.5 -25.5t25.5 -62.5t-25.5 -62.5 t-62.5 -25.5t-62.5 25.5t-25.5 62.5z" />
<glyph unicode="&#xdd;" horiz-adv-x="1466" d="M117 1383.5q-2 -21.5 8 -37.5l481 -658v-639q0 -20 14.5 -34.5t34.5 -14.5q23 0 36.5 14.5t13.5 34.5v643l479 654q12 16 9 37.5t-19 31.5q-16 14 -38 11t-32 -19l-451 -616l-448 616q-10 16 -31.5 19.5t-38.5 -11.5q-16 -10 -18 -31.5zM516 1640q0 10 8 23l127 190 q25 37 58 37q29 0 57.5 -15t28.5 -32q0 -14 -23 -37l-164 -157q-18 -16 -31.5 -21.5t-33.5 -5.5q-27 0 -27 18z" />
<glyph unicode="&#xde;" horiz-adv-x="1378" d="M213 45v1344q0 23 15.5 38t37.5 15q23 0 38 -15.5t15 -37.5v-215h414q119 0 216.5 -30t168 -86.5t109.5 -137t39 -185.5v-4q0 -113 -45 -199t-122 -143t-178.5 -87t-213.5 -30h-388v-227q0 -23 -15 -38t-38 -15t-38 15.5t-15 37.5zM319 371h394q100 0 182 25.5 t140.5 71.5t91 111.5t32.5 145.5v4q0 86 -31.5 150.5t-89 107.5t-137.5 65.5t-176 22.5h-406v-704z" />
<glyph unicode="&#xdf;" horiz-adv-x="1269" d="M190 41v983q0 106 32 195.5t90.5 154t141.5 100t187 35.5q92 0 167 -27.5t129 -75.5t83 -113.5t29 -141.5v-4q0 -76 -28 -137.5t-73 -110.5t-103.5 -85t-117.5 -56q80 -14 154.5 -42t132 -73t92.5 -107.5t35 -144.5v-4q0 -94 -39 -165.5t-107.5 -121t-163 -75 t-204.5 -29.5q-16 0 -29.5 13.5t-13.5 31.5t13 30.5t30 14.5q88 4 161.5 23.5t128 56.5t85 90t30.5 127v4q0 70 -31.5 123t-85 90t-126 60.5t-154.5 33.5q-51 6 -51 49q0 20 12 32.5t29 19.5q66 23 123 54.5t100 74.5t67.5 97t24.5 122v4q0 57 -22.5 107.5t-62.5 85 t-96.5 55t-123.5 20.5q-74 0 -137.5 -27.5t-109.5 -77.5t-71.5 -123t-25.5 -163v-983q0 -23 -14.5 -36t-36.5 -13q-23 0 -36.5 13t-13.5 36z" />
<glyph unicode="&#xe0;" horiz-adv-x="1175" d="M129 502q0 102 37 193t101.5 160t151.5 109t185 40q117 0 214 -53.5t163 -143.5v147q0 23 14.5 36.5t34.5 13.5t34.5 -13.5t14.5 -36.5v-905q0 -20 -14 -34.5t-35 -14.5q-20 0 -34.5 14.5t-14.5 34.5v150q-66 -90 -163 -144.5t-214 -54.5q-98 0 -185 40t-151.5 108.5 t-101.5 159.5t-37 194zM227 502q0 -84 30 -158t82 -128t119.5 -86t145.5 -32t146.5 32t120 86t81 128t29.5 158t-29.5 157.5t-81 129t-120 87t-146.5 31.5t-145.5 -31.5t-119.5 -87t-82 -129t-30 -157.5zM467 1389q0 16 28.5 31.5t57.5 15.5q33 0 57 -37l127 -191 q8 -12 8 -22q1 -19 -26 -19q-20 0 -33.5 5.5t-32.5 21.5l-164 158q-23 23 -22 37z" />
<glyph unicode="&#xe1;" horiz-adv-x="1175" d="M129 502q0 102 37 193t101.5 160t151.5 109t185 40q117 0 214 -53.5t163 -143.5v147q0 23 14.5 36.5t34.5 13.5t34.5 -13.5t14.5 -36.5v-905q0 -20 -14 -34.5t-35 -14.5q-20 0 -34.5 14.5t-14.5 34.5v150q-66 -90 -163 -144.5t-214 -54.5q-98 0 -185 40t-151.5 108.5 t-101.5 159.5t-37 194zM227 502q0 -84 30 -158t82 -128t119.5 -86t145.5 -32t146.5 32t120 86t81 128t29.5 158t-29.5 157.5t-81 129t-120 87t-146.5 31.5t-145.5 -31.5t-119.5 -87t-82 -129t-30 -157.5zM465 1186q0 10 8 22l127 191q25 37 57 37q29 0 57.5 -15.5 t28.5 -31.5q0 -14 -22 -37l-164 -158q-18 -16 -31.5 -21.5t-33.5 -5.5q-27 0 -27 19z" />
<glyph unicode="&#xe2;" horiz-adv-x="1175" d="M129 502q0 102 37 193t101.5 160t151.5 109t185 40q117 0 214 -53.5t163 -143.5v147q0 23 14.5 36.5t34.5 13.5t34.5 -13.5t14.5 -36.5v-905q0 -20 -14 -34.5t-35 -14.5q-20 0 -34.5 14.5t-14.5 34.5v150q-66 -90 -163 -144.5t-214 -54.5q-98 0 -185 40t-151.5 108.5 t-101.5 159.5t-37 194zM227 502q0 -84 30 -158t82 -128t119.5 -86t145.5 -32t146.5 32t120 86t81 128t29.5 158t-29.5 157.5t-81 129t-120 87t-146.5 31.5t-145.5 -31.5t-119.5 -87t-82 -129t-30 -157.5zM381 1188q0 12 10 24l148 181q14 16 26.5 26.5t30.5 10.5h16 q18 0 30.5 -10.5t27.5 -26.5l147 -181q10 -12 10 -24q0 -20 -28 -21q-20 0 -34.5 5.5t-33.5 21.5l-129 119l-129 -119q-18 -16 -31.5 -21.5t-33.5 -5.5q-27 0 -27 21z" />
<glyph unicode="&#xe3;" horiz-adv-x="1175" d="M129 502q0 102 37 193t101.5 160t151.5 109t185 40q117 0 214 -53.5t163 -143.5v147q0 23 14.5 36.5t34.5 13.5t34.5 -13.5t14.5 -36.5v-905q0 -20 -14 -34.5t-35 -14.5q-20 0 -34.5 14.5t-14.5 34.5v150q-66 -90 -163 -144.5t-214 -54.5q-98 0 -185 40t-151.5 108.5 t-101.5 159.5t-37 194zM227 502q0 -84 30 -158t82 -128t119.5 -86t145.5 -32t146.5 32t120 86t81 128t29.5 158t-29.5 157.5t-81 129t-120 87t-146.5 31.5t-145.5 -31.5t-119.5 -87t-82 -129t-30 -157.5zM307 1202q0 12 4 25q29 90 68 121.5t94 31.5q29 0 63.5 -13 t70.5 -28.5t69 -29t59 -13.5q35 0 54.5 18.5t37.5 59.5q4 10 13.5 19.5t23.5 9.5q16 0 26.5 -9.5t10.5 -25.5q0 -12 -4 -25q-29 -90 -67.5 -121.5t-94.5 -31.5q-29 0 -63.5 13.5t-70.5 28.5t-68.5 28.5t-59.5 13.5q-35 0 -54.5 -18.5t-37.5 -59.5q-4 -10 -12.5 -19.5 t-24.5 -9.5t-26.5 9.5t-10.5 25.5z" />
<glyph unicode="&#xe4;" horiz-adv-x="1175" d="M129 502q0 102 37 193t101.5 160t151.5 109t185 40q117 0 214 -53.5t163 -143.5v147q0 23 14.5 36.5t34.5 13.5t34.5 -13.5t14.5 -36.5v-905q0 -20 -14 -34.5t-35 -14.5q-20 0 -34.5 14.5t-14.5 34.5v150q-66 -90 -163 -144.5t-214 -54.5q-98 0 -185 40t-151.5 108.5 t-101.5 159.5t-37 194zM227 502q0 -84 30 -158t82 -128t119.5 -86t145.5 -32t146.5 32t120 86t81 128t29.5 158t-29.5 157.5t-81 129t-120 87t-146.5 31.5t-145.5 -31.5t-119.5 -87t-82 -129t-30 -157.5zM350 1255q0 37 25.5 62.5t62.5 25.5t62.5 -25.5t25.5 -62.5 t-25.5 -62.5t-62.5 -25.5t-62.5 25.5t-25.5 62.5zM688 1255q0 37 25.5 62.5t62.5 25.5t62.5 -25.5t25.5 -62.5t-25.5 -62.5t-62.5 -25.5t-62.5 25.5t-25.5 62.5z" />
<glyph unicode="&#xe5;" horiz-adv-x="1175" d="M104 502q0 102 37 193t101.5 160t151.5 109t186 40q117 0 214 -53.5t162 -143.5v147q0 23 15 36.5t35 13.5t34.5 -13.5t14.5 -36.5v-905q0 -20 -14.5 -34.5t-34.5 -14.5t-35 14.5t-15 34.5v150q-66 -90 -163 -144.5t-213 -54.5q-98 0 -185.5 40t-152 108.5t-101.5 159.5 t-37 194zM203 502q0 -84 29.5 -158t82 -128t120 -86t145.5 -32t146.5 32t119.5 86t80.5 128t29.5 158t-29.5 157.5t-80.5 129t-120 87t-146 31.5q-78 0 -145.5 -31.5t-120 -87t-82 -129t-29.5 -157.5zM397 1325v2q0 37 15.5 70t41 57.5t58.5 38.5t68 14q37 0 71.5 -14 t60 -38.5t41 -57.5t15.5 -70v-2q0 -35 -15.5 -67.5t-41 -57t-60 -39t-71.5 -14.5q-35 0 -68 14.5t-58.5 39t-41 57t-15.5 67.5zM485 1325q0 -35 28 -64.5t67 -29.5q45 0 72.5 29.5t27.5 64.5v2q0 39 -27.5 69.5t-72.5 30.5q-39 0 -67 -30.5t-28 -69.5v-2z" />
<glyph unicode="&#xe6;" horiz-adv-x="1953" d="M104 502q0 102 37 193t101.5 160t151.5 109t186 40q117 0 214 -53.5t162 -143.5v147q0 23 14.5 36.5t35.5 13.5q20 0 34.5 -13.5t14.5 -36.5v-166q66 98 171 159t232 61q96 0 181 -37t150.5 -99.5t105.5 -147.5t49 -183v-2v-7q0 -20 -14.5 -34.5t-35.5 -14.5h-827 q4 -82 36 -152.5t85 -121.5t122.5 -81t147.5 -30q102 0 187.5 49.5t136.5 133.5q10 18 30.5 22t36.5 -6q16 -12 21.5 -31.5t-4.5 -36.5q-66 -104 -172.5 -166.5t-235.5 -62.5q-127 0 -232.5 60.5t-170.5 158.5v-170q0 -20 -14.5 -34.5t-34.5 -14.5t-35 14.5t-15 34.5v150 q-66 -90 -163 -144.5t-213 -54.5q-98 0 -185.5 40t-152 108.5t-101.5 159.5t-37 194zM203 502q0 -84 29.5 -158t82 -128t120 -86t145.5 -32t146.5 32t119.5 86t80.5 128t29.5 158t-29.5 157.5t-80.5 129t-120 87t-146 31.5q-78 0 -145.5 -31.5t-120 -87t-82 -129 t-29.5 -157.5zM1073 584h764q-12 70 -47 129t-85 103t-113.5 68.5t-133.5 24.5q-72 0 -135 -24.5t-114.5 -67.5t-86.5 -103t-49 -130z" />
<glyph unicode="&#xe7;" horiz-adv-x="1169" d="M119 504q0 104 40 195.5t110.5 159t163.5 106.5t202 39q90 0 172 -29t147 -82q16 -10 18.5 -30.5t-11.5 -37.5q-12 -14 -32 -17t-36 9q-53 43 -119.5 66.5t-138.5 23.5q-88 0 -164 -31.5t-132 -87t-89 -129t-33 -155.5q0 -84 33 -158t89 -129t132 -87t164 -32 q72 0 138.5 23.5t119.5 64.5q16 12 35.5 9.5t32.5 -17.5q14 -16 11 -36.5t-22 -35.5q-63 -49 -144 -77.5t-171 -28.5q-109 0 -202 39t-163.5 106.5t-110.5 159.5t-40 199zM457 -242q0 12 10 31l158 231h88l-133 -270q-10 -18 -20.5 -29.5t-33.5 -11.5q-25 0 -47 16.5 t-22 32.5z" />
<glyph unicode="&#xe8;" horiz-adv-x="1247" d="M119 500q0 -102 38 -193.5t104.5 -159t154.5 -107.5t190 -40q129 0 234.5 61.5t171.5 165.5q10 18 5 38t-22 32q-16 10 -35.5 6t-29.5 -22q-51 -86 -137 -134.5t-187 -48.5q-78 0 -146.5 30t-121.5 81t-85 121.5t-36 152.5h823q20 0 35 12.5t15 32.5v7v2q-8 98 -48.5 183 t-105 148.5t-149.5 99.5t-181 36q-102 0 -190 -40t-154.5 -108t-104.5 -160t-38 -196zM223 580q14 72 49 131t85.5 102t113.5 67.5t135 24.5q70 0 132.5 -24.5t112.5 -67.5t85 -103.5t47 -129.5h-760zM465 1389q0 16 28.5 31.5t57.5 15.5q33 0 57 -37l127 -191q8 -12 8 -22 q1 -19 -26 -19q-20 0 -33.5 5.5t-32.5 21.5l-164 158q-23 23 -22 37z" />
<glyph unicode="&#xe9;" horiz-adv-x="1247" d="M119 500q0 -102 38 -193.5t104.5 -159t154.5 -107.5t190 -40q129 0 234.5 61.5t171.5 165.5q10 18 5 38t-22 32q-16 10 -35.5 6t-29.5 -22q-51 -86 -137 -134.5t-187 -48.5q-78 0 -146.5 30t-121.5 81t-85 121.5t-36 152.5h823q20 0 35 12.5t15 32.5v7v2q-8 98 -48.5 183 t-105 148.5t-149.5 99.5t-181 36q-102 0 -190 -40t-154.5 -108t-104.5 -160t-38 -196zM223 580q14 72 49 131t85.5 102t113.5 67.5t135 24.5q70 0 132.5 -24.5t112.5 -67.5t85 -103.5t47 -129.5h-760zM465 1186q0 10 8 22l127 191q25 37 57 37q29 0 57.5 -15.5t28.5 -31.5 q0 -14 -22 -37l-164 -158q-18 -16 -31.5 -21.5t-33.5 -5.5q-27 0 -27 19z" />
<glyph unicode="&#xea;" horiz-adv-x="1247" d="M119 500q0 -102 38 -193.5t104.5 -159t154.5 -107.5t190 -40q129 0 234.5 61.5t171.5 165.5q10 18 5 38t-22 32q-16 10 -35.5 6t-29.5 -22q-51 -86 -137 -134.5t-187 -48.5q-78 0 -146.5 30t-121.5 81t-85 121.5t-36 152.5h823q20 0 35 12.5t15 32.5v7v2q-8 98 -48.5 183 t-105 148.5t-149.5 99.5t-181 36q-102 0 -190 -40t-154.5 -108t-104.5 -160t-38 -196zM223 580q14 72 49 131t85.5 102t113.5 67.5t135 24.5q70 0 132.5 -24.5t112.5 -67.5t85 -103.5t47 -129.5h-760zM383 1188q0 12 10 24l148 181q14 16 26.5 26.5t30.5 10.5h16 q18 0 30.5 -10.5t27.5 -26.5l147 -181q10 -12 10 -24q0 -20 -28 -21q-20 0 -34.5 5.5t-33.5 21.5l-129 119l-129 -119q-18 -16 -31.5 -21.5t-33.5 -5.5q-27 0 -27 21z" />
<glyph unicode="&#xeb;" horiz-adv-x="1196" d="M125 500q0 -102 38 -193.5t104.5 -159t154.5 -107.5t190 -40q129 0 234.5 61.5t171.5 165.5q10 18 5 38t-22 32q-16 10 -35.5 6t-29.5 -22q-51 -86 -137 -134.5t-187 -48.5q-78 0 -146.5 30t-121.5 81t-85 121.5t-36 152.5h824q20 0 34.5 12.5t14.5 32.5v7v2 q-8 98 -48 183t-104.5 148.5t-149.5 99.5t-182 36q-102 0 -190 -40t-154.5 -108t-104.5 -160t-38 -196zM229 580q14 72 49 131t85.5 102t113.5 67.5t135 24.5q70 0 132.5 -24.5t112.5 -67.5t85 -103.5t47 -129.5h-760zM354 1255q0 37 26 62.5t62 25.5q37 0 62.5 -25.5 t25.5 -62.5t-25.5 -62.5t-62.5 -25.5t-62.5 25.5t-25.5 62.5zM692 1255q0 37 25.5 62.5t62.5 25.5t62.5 -25.5t25.5 -62.5t-25.5 -62.5t-62.5 -25.5t-62.5 25.5t-25.5 62.5z" />
<glyph unicode="&#xec;" horiz-adv-x="575" d="M102 1389q0 16 29 31.5t57 15.5q33 0 58 -37l127 -191q8 -12 8 -22q0 -19 -27 -19q-20 0 -33.5 5.5t-31.5 21.5l-164 158q-23 23 -23 37zM193 49q0 -20 14 -34.5t35 -14.5q23 0 37 14.5t14 34.5v905q0 23 -14.5 36.5t-36.5 13.5q-20 0 -34.5 -13.5t-14.5 -36.5v-905z" />
<glyph unicode="&#xed;" horiz-adv-x="575" d="M102 1186q0 10 9 22l127 191q25 37 57 37q29 0 57.5 -15.5t28.5 -31.5q0 -14 -23 -37l-163 -158q-18 -16 -32 -21.5t-34 -5.5q-27 0 -27 19zM193 49q0 -20 14 -34.5t35 -14.5q23 0 37 14.5t14 34.5v905q0 23 -14.5 36.5t-36.5 13.5q-20 0 -34.5 -13.5t-14.5 -36.5v-905z " />
<glyph unicode="&#xee;" horiz-adv-x="575" d="M18 1188q0 12 11 24l147 181q14 16 26.5 26.5t30.5 10.5h17q18 0 30.5 -10.5t26.5 -26.5l148 -181q10 -12 10 -24q0 -20 -29 -21q-20 0 -34.5 5.5t-32.5 21.5l-129 119l-129 -119q-18 -16 -31.5 -21.5t-34.5 -5.5q-27 0 -27 21zM193 49q0 -20 14 -34.5t35 -14.5 q23 0 37 14.5t14 34.5v905q0 23 -14.5 36.5t-36.5 13.5q-20 0 -34.5 -13.5t-14.5 -36.5v-905z" />
<glyph unicode="&#xef;" horiz-adv-x="575" d="M-12 1255q0 37 25.5 62.5t62.5 25.5t62.5 -25.5t25.5 -62.5t-25.5 -62.5t-62.5 -25.5t-62.5 25.5t-25.5 62.5zM193 49q0 -20 14 -34.5t35 -14.5q23 0 37 14.5t14 34.5v905q0 23 -14.5 36.5t-36.5 13.5q-20 0 -34.5 -13.5t-14.5 -36.5v-905zM326 1255q0 37 25.5 62.5 t62.5 25.5t62.5 -25.5t25.5 -62.5t-25.5 -62.5t-62.5 -25.5t-62.5 25.5t-25.5 62.5z" />
<glyph unicode="&#xf0;" horiz-adv-x="1286" d="M119 500q0 111 41 203t108.5 156.5t156.5 100t185 35.5q125 0 210 -37.5t153 -91.5l-301 426l-250 -127q-12 -6 -25 -6q-18 0 -31.5 14.5t-13.5 32.5q0 27 29 41l240 117l-37 53q-12 16 -13 37q0 20 14.5 34.5t37.5 14.5q16 0 27.5 -8t19.5 -18l43 -66l176 90q12 6 24 6 q18 0 31.5 -14t13.5 -33q0 -27 -28 -41l-166 -82l221 -329q41 -59 74 -118t56.5 -118t35.5 -124.5t12 -139.5q0 -106 -38 -202.5t-106.5 -170.5t-166.5 -117t-219 -43q-111 0 -205 42t-162.5 114t-107.5 167t-39 202zM227 494q0 -82 31 -159t86 -135.5t132 -94t167 -35.5 q92 0 168 34.5t130 94t84 136.5t30 163q0 84 -33 157.5t-91.5 129t-137 88t-170.5 32.5t-165 -31.5t-124 -87t-79 -131t-28 -161.5z" />
<glyph unicode="&#xf1;" d="M193 37q2 -2 2 -4q0 -4 2 -6q10 -20 32 -27h13q25 0 37 18q6 6 10 23v8v545q2 63 26.5 119.5t66.5 98.5t98.5 66.5t119.5 24.5t120.5 -24.5t98.5 -66.5t65.5 -98.5t24.5 -119.5v-545q0 -23 14.5 -36t34.5 -13t35 13.5t15 35.5v545q0 84 -32 157.5t-87 129t-130 88 t-159 32.5q-94 0 -175 -39.5t-136 -105.5v96q0 20 -13.5 34.5t-33.5 14.5q-23 0 -36 -14t-13 -35v-342v-16v-545v-12zM305 1182q0 12 4 24q29 90 68 122t94 32q29 0 63.5 -13.5t70.5 -28.5t69 -28.5t59 -13.5q35 0 54.5 18.5t37.5 59.5q4 10 13.5 19t23.5 9q16 0 26.5 -9 t10.5 -25q0 -12 -4 -25q-29 -90 -68 -122t-94 -32q-29 0 -63.5 13.5t-70.5 29t-68.5 28.5t-59.5 13q-35 0 -54.5 -18t-37.5 -59q-4 -10 -12.5 -19.5t-24.5 -9.5t-26.5 9t-10.5 26z" />
<glyph unicode="&#xf2;" horiz-adv-x="1310" d="M119 502q0 -102 37 -193.5t101.5 -160t151.5 -108.5t185 -40t185 40t151.5 108.5t101.5 159.5t37 194q0 102 -37 193t-101.5 160t-151.5 109t-185 40t-185 -40t-151.5 -109t-101.5 -160t-37 -193zM217 502q0 84 29.5 157.5t82 129t120 87t145.5 31.5q76 0 144.5 -31.5 t120.5 -87t82 -129t30 -157.5t-30 -158t-82 -128t-120.5 -86t-144.5 -32q-78 0 -145.5 32t-120 86t-82 128t-29.5 158zM455 1389q0 16 28.5 31.5t57.5 15.5q33 0 57 -37l127 -191q8 -12 8 -22q1 -19 -26 -19q-20 0 -34 5.5t-32 21.5l-164 158q-23 23 -22 37z" />
<glyph unicode="&#xf3;" horiz-adv-x="1310" d="M119 502q0 -102 37 -193.5t101.5 -160t151.5 -108.5t185 -40t185 40t151.5 108.5t101.5 159.5t37 194q0 102 -37 193t-101.5 160t-151.5 109t-185 40t-185 -40t-151.5 -109t-101.5 -160t-37 -193zM217 502q0 84 29.5 157.5t82 129t120 87t145.5 31.5q76 0 144.5 -31.5 t120.5 -87t82 -129t30 -157.5t-30 -158t-82 -128t-120.5 -86t-144.5 -32q-78 0 -145.5 32t-120 86t-82 128t-29.5 158zM459 1186q0 10 8 22l127 191q25 37 57 37q29 0 57.5 -15.5t28.5 -31.5q0 -14 -22 -37l-164 -158q-18 -16 -32 -21.5t-34 -5.5q-27 0 -26 19z" />
<glyph unicode="&#xf4;" horiz-adv-x="1310" d="M119 502q0 -102 37 -193.5t101.5 -160t151.5 -108.5t185 -40t185 40t151.5 108.5t101.5 159.5t37 194q0 102 -37 193t-101.5 160t-151.5 109t-185 40t-185 -40t-151.5 -109t-101.5 -160t-37 -193zM217 502q0 84 29.5 157.5t82 129t120 87t145.5 31.5q76 0 144.5 -31.5 t120.5 -87t82 -129t30 -157.5t-30 -158t-82 -128t-120.5 -86t-144.5 -32q-78 0 -145.5 32t-120 86t-82 128t-29.5 158zM371 1188q0 12 10 24l147 181q14 16 26.5 26.5t31.5 10.5h16q18 0 30.5 -10.5t26.5 -26.5l148 -181q10 -12 10 -24q0 -20 -29 -21q-20 0 -34.5 5.5 t-32.5 21.5l-129 119l-129 -119q-18 -16 -31.5 -21.5t-34.5 -5.5q-27 0 -26 21z" />
<glyph unicode="&#xf5;" horiz-adv-x="1310" d="M119 502q0 -102 37 -193.5t101.5 -160t151.5 -108.5t185 -40t185 40t151.5 108.5t101.5 159.5t37 194q0 102 -37 193t-101.5 160t-151.5 109t-185 40t-185 -40t-151.5 -109t-101.5 -160t-37 -193zM217 502q0 84 29.5 157.5t82 129t120 87t145.5 31.5q76 0 144.5 -31.5 t120.5 -87t82 -129t30 -157.5t-30 -158t-82 -128t-120.5 -86t-144.5 -32q-78 0 -145.5 32t-120 86t-82 128t-29.5 158zM297 1202q0 12 4 25q29 90 68 121.5t94 31.5q29 0 63.5 -13t70.5 -28.5t68.5 -29t59.5 -13.5q35 0 54.5 18.5t37.5 59.5q4 10 13.5 19.5t23.5 9.5 q16 0 26.5 -9.5t10.5 -25.5q0 -12 -4 -25q-29 -90 -68 -121.5t-94 -31.5q-29 0 -63.5 13.5t-70.5 28.5t-69 28.5t-59 13.5q-35 0 -54.5 -18.5t-37.5 -59.5q-4 -10 -12.5 -19.5t-24.5 -9.5t-26.5 9.5t-10.5 25.5z" />
<glyph unicode="&#xf6;" horiz-adv-x="1310" d="M119 502q0 -102 37 -193.5t101.5 -160t151.5 -108.5t185 -40t185 40t151.5 108.5t101.5 159.5t37 194q0 102 -37 193t-101.5 160t-151.5 109t-185 40t-185 -40t-151.5 -109t-101.5 -160t-37 -193zM217 502q0 84 29.5 157.5t82 129t120 87t145.5 31.5q76 0 144.5 -31.5 t120.5 -87t82 -129t30 -157.5t-30 -158t-82 -128t-120.5 -86t-144.5 -32q-78 0 -145.5 32t-120 86t-82 128t-29.5 158zM336 1255q0 37 25.5 62.5t62.5 25.5t62.5 -25.5t25.5 -62.5t-25.5 -62.5t-62.5 -25.5t-62.5 25.5t-25.5 62.5zM674 1255q0 37 25.5 62.5t62.5 25.5 t62.5 -25.5t25.5 -62.5t-25.5 -62.5t-62.5 -25.5t-62.5 25.5t-25.5 62.5z" />
<glyph unicode="&#xf7;" horiz-adv-x="1269" d="M131 721q0 -20 14.5 -34.5t34.5 -14.5h910q20 0 34.5 14t14.5 35q0 20 -14.5 34.5t-34.5 14.5h-910q-20 0 -34.5 -14.5t-14.5 -34.5zM553 309v35q0 35 23.5 58.5t58.5 23.5t58.5 -23.5t23.5 -58.5v-35q0 -35 -23.5 -58.5t-58.5 -23.5t-58.5 23.5t-23.5 58.5zM553 1098v35 q0 35 23.5 58t58.5 23t58.5 -23.5t23.5 -57.5v-35q0 -35 -23.5 -58.5t-58.5 -23.5t-58.5 23.5t-23.5 58.5z" />
<glyph unicode="&#xf8;" horiz-adv-x="1310" d="M119 518v4q0 111 40 209t112.5 174t171 120t214.5 44q100 0 187.5 -32.5t154.5 -92.5l99 107q16 16 37 16q16 0 28.5 -11.5t12.5 -27.5q0 -18 -13 -31l-104 -110q63 -72 98 -164t35 -197v-4q0 -111 -40 -209t-112.5 -174t-171 -120t-215.5 -44q-100 0 -187 33t-155 90 l-98 -100q-16 -16 -37 -16q-16 0 -28.5 11t-12.5 27q0 18 12 31l103 107q-61 74 -96 165t-35 195zM227 522q0 -84 24.5 -156.5t72.5 -132.5l610 633q-57 51 -128 80t-153 29q-92 0 -171 -36t-135 -96.5t-88 -142.5t-32 -174v-4zM377 176q57 -51 127.5 -78.5t152.5 -27.5 q92 0 171 35.5t135.5 96t88 142.5t31.5 174v4q0 84 -25.5 157t-72.5 132z" />
<glyph unicode="&#xf9;" d="M170 410q0 -84 31.5 -159t87 -130t129.5 -88t157 -33q86 0 161 33t131.5 88t88 130t31.5 159v546q0 23 -14.5 36.5t-36.5 13.5q-18 0 -33.5 -13.5t-15.5 -36.5v-546q0 -66 -24.5 -122.5t-66.5 -98.5t-99.5 -66.5t-121.5 -24.5q-63 0 -119.5 24.5t-97.5 66.5t-65.5 98.5 t-24.5 122.5v546q0 23 -14 36.5t-35 13.5q-20 0 -34.5 -13.5t-14.5 -36.5v-546zM438 1389q0 16 29 31.5t57 15.5q33 0 58 -37l127 -191q8 -12 8 -22q0 -19 -27 -19q-20 0 -33.5 5.5t-31.5 21.5l-164 158q-23 23 -23 37z" />
<glyph unicode="&#xfa;" d="M170 410q0 -84 31.5 -159t87 -130t129.5 -88t157 -33q86 0 161 33t131.5 88t88 130t31.5 159v546q0 23 -14.5 36.5t-36.5 13.5q-18 0 -33.5 -13.5t-15.5 -36.5v-546q0 -66 -24.5 -122.5t-66.5 -98.5t-99.5 -66.5t-121.5 -24.5q-63 0 -119.5 24.5t-97.5 66.5t-65.5 98.5 t-24.5 122.5v546q0 23 -14 36.5t-35 13.5q-20 0 -34.5 -13.5t-14.5 -36.5v-546zM438 1186q0 10 8 22l127 191q25 37 58 37q29 0 57.5 -15.5t28.5 -31.5q0 -14 -23 -37l-164 -158q-18 -16 -31.5 -21.5t-33.5 -5.5q-27 0 -27 19z" />
<glyph unicode="&#xfb;" d="M170 410q0 -84 31.5 -159t87 -130t129.5 -88t157 -33q86 0 161 33t131.5 88t88 130t31.5 159v546q0 23 -14.5 36.5t-36.5 13.5q-18 0 -33.5 -13.5t-15.5 -36.5v-546q0 -66 -24.5 -122.5t-66.5 -98.5t-99.5 -66.5t-121.5 -24.5q-63 0 -119.5 24.5t-97.5 66.5t-65.5 98.5 t-24.5 122.5v546q0 23 -14 36.5t-35 13.5q-20 0 -34.5 -13.5t-14.5 -36.5v-546zM356 1188q0 12 11 24l147 181q14 16 26.5 26.5t30.5 10.5h17q18 0 30.5 -10.5t26.5 -26.5l148 -181q10 -12 10 -24q0 -20 -29 -21q-20 0 -34.5 5.5t-32.5 21.5l-129 119l-129 -119 q-18 -16 -32 -21.5t-34 -5.5q-27 0 -27 21z" />
<glyph unicode="&#xfc;" d="M170 410q0 -84 31.5 -159t87 -130t129.5 -88t157 -33q86 0 161 33t131.5 88t88 130t31.5 159v546q0 23 -14.5 36.5t-36.5 13.5q-18 0 -33.5 -13.5t-15.5 -36.5v-546q0 -66 -24.5 -122.5t-66.5 -98.5t-99.5 -66.5t-121.5 -24.5q-63 0 -119.5 24.5t-97.5 66.5t-65.5 98.5 t-24.5 122.5v546q0 23 -14 36.5t-35 13.5q-20 0 -34.5 -13.5t-14.5 -36.5v-546zM324 1255q0 37 25.5 62.5t62.5 25.5t62.5 -25.5t25.5 -62.5t-25.5 -62.5t-62.5 -25.5t-62.5 25.5t-25.5 62.5zM662 1255q0 37 25.5 62.5t62.5 25.5t62.5 -25.5t25.5 -62.5t-26 -62.5t-62 -25.5 q-37 0 -62.5 25.5t-25.5 62.5z" />
<glyph unicode="&#xfd;" horiz-adv-x="1204" d="M106 412q0 -84 32 -159t87.5 -130t129 -88t157.5 -33q94 0 174 39t137 104v-65q0 -78 -30.5 -145.5t-82 -119t-120 -80t-146.5 -28.5q-86 0 -163 39q-18 4 -36 -1t-28 -24q-10 -16 -3 -35.5t24 -29.5q47 -23 99 -35t107 -12q98 0 185.5 37t152 100.5t102.5 149.5t38 184 v313v19v544q0 10 -7 21q-2 4 -5 8t-7 8q-16 8 -24 11h-7h-6q-2 0 -3 -1.5t-3 -1.5h-4q-12 -4 -18 -12q-2 0 -2 -1t-2 -1q0 -2 -1.5 -3t-1.5 -3q-8 -8 -8 -25v-544q0 -66 -24.5 -122.5t-66.5 -97t-99.5 -65.5t-120.5 -25t-119.5 25t-97.5 65.5t-65.5 97t-24.5 122.5v544 q0 20 -14.5 34t-36.5 14q-18 0 -33 -13.5t-15 -34.5v-544zM375 1186q0 10 8 22l127 191q25 37 57 37q29 0 57.5 -15.5t28.5 -31.5q0 -14 -22 -37l-164 -158q-18 -16 -32 -21.5t-34 -5.5q-27 0 -26 19z" />
<glyph unicode="&#xfe;" horiz-adv-x="1351" d="M190 -285v1737q0 23 13.5 37t36.5 14t37 -14t14 -37v-641q33 51 76 98t95 82t116.5 56.5t142.5 21.5q94 0 185 -37t163 -106.5t116 -171t44 -228.5v-4q0 -127 -44 -228t-116 -172t-163 -109t-185 -38q-78 0 -143.5 20.5t-117.5 55.5t-94 80t-75 94v-510q0 -23 -13.5 -37 t-35.5 -14q-23 0 -37.5 14.5t-14.5 36.5zM285 520q0 -100 35.5 -183t95 -141.5t136.5 -91t159 -32.5q86 0 160.5 30.5t130 88t87 140.5t31.5 187v4q0 102 -32.5 186.5t-89 142.5t-131 90t-156.5 32t-159 -33t-136.5 -92.5t-95 -141t-35.5 -182.5v-4z" />
<glyph unicode="&#xff;" horiz-adv-x="1204" d="M106 412q0 -84 32 -159t87.5 -130t129 -88t157.5 -33q94 0 174 39t137 104v-65q0 -78 -30.5 -145.5t-82 -119t-120 -80t-146.5 -28.5q-86 0 -163 39q-18 4 -36 -1t-28 -24q-10 -16 -3 -35.5t24 -29.5q47 -23 99 -35t107 -12q98 0 185.5 37t152 100.5t102.5 149.5t38 184 v313v19v544q0 10 -7 21q-2 4 -5 8t-7 8q-16 8 -24 11h-7h-6q-2 0 -3 -1.5t-3 -1.5h-4q-12 -4 -18 -12q-2 0 -2 -1t-2 -1q0 -2 -1.5 -3t-1.5 -3q-8 -8 -8 -25v-544q0 -66 -24.5 -122.5t-66.5 -97t-99.5 -65.5t-120.5 -25t-119.5 25t-97.5 65.5t-65.5 97t-24.5 122.5v544 q0 20 -14.5 34t-36.5 14q-18 0 -33 -13.5t-15 -34.5v-544zM256 1255q0 37 25.5 62.5t62.5 25.5t62.5 -25.5t25.5 -62.5t-25.5 -62.5t-62.5 -25.5t-62.5 25.5t-25.5 62.5zM594 1255q0 37 25.5 62.5t62.5 25.5t62.5 -25.5t25.5 -62.5t-25.5 -62.5t-62.5 -25.5t-62.5 25.5 t-25.5 62.5z" />
<glyph unicode="&#x152;" horiz-adv-x="2955" d="M150 727q0 150 54 283t147 231t219 155.5t272 57.5q98 0 189 -28.5t170 -79t141.5 -122t105.5 -157.5v317q0 20 14.5 35t34.5 15h737q23 0 36.5 -14.5t13.5 -35.5q0 -23 -13.5 -37t-36.5 -14h-686v-567h600q20 0 35 -14.5t15 -36.5q0 -20 -14.5 -34.5t-35.5 -14.5h-600 v-566h686q23 0 36.5 -14t13.5 -37q0 -20 -13.5 -34.5t-36.5 -14.5h-741q-18 2 -31.5 15.5t-13.5 33.5v338q-43 -86 -105.5 -157.5t-141.5 -123t-170 -79t-189 -27.5q-145 0 -271.5 57.5t-219.5 155.5t-147 230t-54 284zM250 727q0 -131 47 -245.5t127 -198.5t187.5 -133.5 t230.5 -49.5q119 0 224 49.5t185 133.5t127 198.5t47 245.5q0 133 -47 246.5t-127 197.5t-185 132.5t-224 48.5q-123 0 -230.5 -48.5t-187.5 -132.5t-127 -197.5t-47 -246.5z" />
<glyph unicode="&#x153;" horiz-adv-x="2160" d="M119 502q0 102 37 193t101.5 159t150.5 107.5t184 39.5q74 0 140.5 -21.5t122.5 -61t99 -94t72 -119.5q29 68 74 123t103.5 95t127 62.5t144.5 22.5q96 0 181 -37t150.5 -99.5t105.5 -147.5t48 -183v-9q0 -20 -14.5 -34.5t-34.5 -14.5h-828q4 -82 36 -152.5t85 -121.5 t123 -81t148 -30q102 0 187 49.5t136 133.5q10 18 30.5 22t37.5 -6q16 -12 21 -31.5t-5 -36.5q-66 -104 -172 -166.5t-235 -62.5q-152 0 -272 83t-177 216q-27 -66 -71 -121t-100 -95t-122.5 -61.5t-140.5 -21.5q-98 0 -184 40t-150.5 108.5t-101.5 159.5t-37 194zM217 502 q0 -84 29.5 -158t81 -128t119 -86t145.5 -32t146.5 32t119.5 86t81 128t30 158t-30 157.5t-81 128t-119.5 86t-146.5 31.5t-145.5 -31.5t-119 -86t-81 -128t-29.5 -157.5zM1090 584h763q-12 70 -46.5 129t-85 103t-113.5 68.5t-133 24.5q-72 0 -135.5 -24.5t-114.5 -67.5 t-86 -103.5t-49 -129.5z" />
<glyph unicode="&#x178;" horiz-adv-x="1466" d="M117 1383.5q-2 -21.5 8 -37.5l481 -658v-639q0 -20 14.5 -34.5t34.5 -14.5q23 0 36.5 14.5t13.5 34.5v643l479 654q12 16 9 37.5t-19 31.5q-16 14 -38 11t-32 -19l-451 -616l-448 616q-10 16 -31.5 19.5t-38.5 -11.5q-16 -10 -18 -31.5zM399 1714q0 37 26 62.5t62 25.5 q37 0 62.5 -25.5t25.5 -62.5t-25.5 -62.5t-62.5 -25.5t-62.5 25.5t-25.5 62.5zM737 1714q0 37 25.5 62.5t62.5 25.5t62.5 -25.5t25.5 -62.5t-25.5 -62.5t-62.5 -25.5t-62.5 25.5t-25.5 62.5z" />
<glyph unicode="&#x2c6;" horiz-adv-x="1024" d="M289 1233q0 12 10 24l147 181q14 16 26.5 26.5t31.5 10.5h16q18 0 30.5 -10.5t27.5 -26.5l147 -181q10 -12 10 -24q0 -20 -28 -21q-20 0 -35 5.5t-33 21.5l-129 119l-129 -119q-18 -16 -31.5 -21.5t-34.5 -5.5q-27 0 -26 21z" />
<glyph unicode="&#x2dc;" horiz-adv-x="1024" d="M215 1231q0 12 4 24q29 90 68 122t94 32q29 0 63.5 -13.5t70.5 -28.5t68.5 -28.5t59.5 -13.5q35 0 54.5 18.5t37.5 59.5q4 10 13.5 19.5t23.5 9.5q16 0 26.5 -9.5t10.5 -25.5q0 -12 -4 -25q-29 -90 -68 -121.5t-94 -31.5q-29 0 -63.5 13t-70.5 28.5t-68.5 29t-59.5 13.5 q-35 0 -54.5 -18.5t-37.5 -59.5q-4 -10 -12.5 -19.5t-24.5 -9.5t-26.5 9t-10.5 26z" />
<glyph unicode="&#x2000;" horiz-adv-x="945" />
<glyph unicode="&#x2001;" horiz-adv-x="1890" />
<glyph unicode="&#x2002;" horiz-adv-x="945" />
<glyph unicode="&#x2003;" horiz-adv-x="1890" />
<glyph unicode="&#x2004;" horiz-adv-x="630" />
<glyph unicode="&#x2005;" horiz-adv-x="472" />
<glyph unicode="&#x2006;" horiz-adv-x="315" />
<glyph unicode="&#x2007;" horiz-adv-x="315" />
<glyph unicode="&#x2008;" horiz-adv-x="236" />
<glyph unicode="&#x2009;" horiz-adv-x="378" />
<glyph unicode="&#x200a;" horiz-adv-x="105" />
<glyph unicode="&#x2010;" horiz-adv-x="835" d="M135 713q0 37 39 37h436q16 0 27.5 -10.5t11.5 -26.5q0 -18 -11 -29.5t-28 -11.5h-436q-39 0 -39 41z" />
<glyph unicode="&#x2011;" horiz-adv-x="835" d="M135 713q0 37 39 37h436q16 0 27.5 -10.5t11.5 -26.5q0 -18 -11 -29.5t-28 -11.5h-436q-39 0 -39 41z" />
<glyph unicode="&#x2012;" horiz-adv-x="835" d="M135 713q0 37 39 37h436q16 0 27.5 -10.5t11.5 -26.5q0 -18 -11 -29.5t-28 -11.5h-436q-39 0 -39 41z" />
<glyph unicode="&#x2013;" horiz-adv-x="1081" d="M135 608q0 23 15.5 38.5t37.5 15.5h705q23 0 38 -15.5t15 -38.5t-15.5 -38t-37.5 -15h-705q-23 0 -38 15.5t-15 37.5z" />
<glyph unicode="&#x2014;" horiz-adv-x="1839" d="M135 608q0 23 15.5 38.5t37.5 15.5h1463q23 0 38 -15.5t15 -38.5t-15.5 -38t-37.5 -15h-1463q-23 0 -38 15.5t-15 37.5z" />
<glyph unicode="&#x2018;" horiz-adv-x="471" d="M158 1110v51q0 86 13 135.5t42 77.5q29 29 60.5 47.5t45.5 18.5q10 0 20.5 -7.5t10.5 -23.5t-16 -27q-55 -31 -78 -67.5t-18 -89.5q23 -6 39 -23.5t16 -48.5v-43q0 -29 -19.5 -48.5t-48.5 -19.5t-48 19.5t-19 48.5z" />
<glyph unicode="&#x2019;" horiz-adv-x="471" d="M121 1075q0 16 16 27q55 31 78 67.5t18 90.5q-23 6 -39 23t-16 48v43q0 29 19.5 48.5t48.5 19.5t48 -19.5t19 -48.5v-51q0 -86 -13 -135t-42 -78t-60.5 -47.5t-45.5 -18.5q-10 0 -20.5 7.5t-10.5 23.5z" />
<glyph unicode="&#x201a;" horiz-adv-x="471" />
<glyph unicode="&#x201c;" horiz-adv-x="839" d="M158 1110v51q0 86 13 135.5t42 77.5q29 29 60.5 47.5t45.5 18.5q10 0 20.5 -7.5t10.5 -23.5t-16 -27q-55 -31 -78 -67.5t-18 -89.5q23 -6 39 -23.5t16 -48.5v-43q0 -29 -19.5 -48.5t-48.5 -19.5t-48 19.5t-19 48.5zM526 1110v51q0 86 13.5 135.5t42.5 77.5 q29 29 60.5 47.5t45.5 18.5q10 0 20.5 -7.5t10.5 -23.5t-17 -27q-55 -31 -77.5 -67.5t-18.5 -89.5q23 -6 39.5 -23.5t16.5 -48.5v-43q0 -29 -19.5 -48.5t-48.5 -19.5t-48.5 19.5t-19.5 48.5z" />
<glyph unicode="&#x201d;" horiz-adv-x="839" d="M121 1075q0 16 16 27q55 31 78 67.5t18 90.5q-23 6 -39 23t-16 48v43q0 29 19.5 48.5t48.5 19.5t48 -19.5t19 -48.5v-51q0 -86 -13 -135t-42 -78t-60.5 -47.5t-45.5 -18.5q-10 0 -20.5 7.5t-10.5 23.5zM489 1075q0 16 17 27q55 31 77.5 67.5t18.5 90.5q-23 6 -39 23 t-16 48v43q0 29 19.5 48.5t47.5 19.5q29 0 48.5 -19.5t19.5 -48.5v-51q0 -86 -13.5 -135t-41.5 -78q-29 -29 -60.5 -47.5t-46.5 -18.5q-10 0 -20.5 7.5t-10.5 23.5z" />
<glyph unicode="&#x201e;" horiz-adv-x="839" d="M111 -184q0 16 16 26q55 31 77.5 68t18.5 90q-23 6 -39 23.5t-16 48.5v43q0 29 19.5 48t48.5 19t48 -19.5t19 -47.5v-52q0 -86 -13.5 -135t-41.5 -78q-29 -29 -60.5 -47t-46.5 -18q-10 0 -20 7.5t-10 23.5zM479 -184q0 16 17 26q55 31 77.5 68t18.5 90q-23 6 -39 23.5 t-16 48.5v43q0 29 19 48t48 19t48.5 -19.5t19.5 -47.5v-52q0 -86 -13.5 -135t-42.5 -78t-60.5 -47t-45.5 -18q-10 0 -20.5 7.5t-10.5 23.5z" />
<glyph unicode="&#x2022;" horiz-adv-x="962" d="M227 719v4q0 51 20.5 97t56.5 81t82 54.5t95 19.5t95.5 -19.5t81 -54.5t56 -81t21.5 -97v-4q0 -53 -20.5 -98.5t-54 -80t-81 -54t-98.5 -19.5q-53 0 -99 19.5t-80 54t-54.5 80t-20.5 98.5z" />
<glyph unicode="&#x2026;" horiz-adv-x="1392" d="M168 102q0 43 29.5 73t72.5 30t73 -30t30 -73t-30 -72.5t-73 -29.5t-72.5 29.5t-29.5 72.5zM633 102q0 43 29.5 73t72.5 30t73 -30t30 -73t-30 -72.5t-73 -29.5t-72.5 29.5t-29.5 72.5zM1098 102q0 43 29.5 73t72.5 30t73 -30t30 -73t-30 -72.5t-73 -29.5t-72.5 29.5 t-29.5 72.5z" />
<glyph unicode="&#x202f;" horiz-adv-x="378" />
<glyph unicode="&#x2039;" horiz-adv-x="636" d="M113 522q0 18 20 45l281 367q16 23 39 22q18 0 31.5 -12t13.5 -31q0 -20 -13 -34l-258 -355l258 -358q12 -16 13 -35q0 -18 -13.5 -30.5t-31.5 -12.5q-23 0 -39 23l-281 366q-20 27 -20 45z" />
<glyph unicode="&#x203a;" horiz-adv-x="636" d="M139 131q0 18 13 35l258 354l-258 359q-6 10 -10.5 17t-2.5 17q2 18 14.5 30.5t30.5 12.5q23 0 39 -22l281 -367q20 -27 20 -45t-20 -45l-281 -366q-16 -23 -39 -23q-18 0 -31.5 12.5t-13.5 30.5z" />
<glyph unicode="&#x205f;" horiz-adv-x="472" />
<glyph unicode="&#x2122;" horiz-adv-x="1413" d="M45 1413q0 20 21 21h413q20 0 21 -21q0 -23 -21 -22h-186v-551q0 -20 -21 -21q-20 0 -20 21v551h-186q-20 0 -21 22zM610 840v569q0 10 11 16v2q8 4 17 3.5t13 -9.5l219 -303l217 303q4 8 13.5 9.5t17.5 -3.5l6 -6q4 -8 4 -12v-569q0 -20 -22 -21q-20 0 -21 21v506 l-196 -273q-6 -10 -19 -10h-2q-10 0 -18 10l-197 273v-506q0 -20 -20 -21q-23 0 -23 21z" />
<glyph unicode="&#x25fc;" horiz-adv-x="995" d="M0 0v995h995v-995h-995z" />
</font>
</defs>
</svg>
