<?xml version="1.0" standalone="no"?>
<!DOCTYPE svg PUBLIC "-//W3C//DTD SVG 1.1//EN" "http://www.w3.org/Graphics/SVG/1.1/DTD/svg11.dtd" >
<svg xmlns="http://www.w3.org/2000/svg">
<metadata></metadata>
<defs>
<font id="quicksandbold_oblique" horiz-adv-x="1024" >
<font-face units-per-em="2048" ascent="1638" descent="-410" />
<missing-glyph horiz-adv-x="614" />
<glyph horiz-adv-x="2048" />
<glyph horiz-adv-x="2048" />
<glyph unicode="&#xd;" horiz-adv-x="614" />
<glyph unicode=" "  horiz-adv-x="614" />
<glyph unicode="&#x09;" horiz-adv-x="614" />
<glyph unicode="&#xa0;" horiz-adv-x="614" />
<glyph unicode="!" horiz-adv-x="516" d="M201 115l8 45q8 47 47 79.5t86 32.5t74.5 -32.5t19.5 -79.5l-8 -45q-8 -47 -47 -80t-86 -33t-74.5 33t-19.5 80zM281 563l133 758q8 47 47 81t86 34t75.5 -34t18.5 -81l-133 -758q-10 -47 -49 -80.5t-86 -33.5t-75 33.5t-17 80.5z" />
<glyph unicode="&#x22;" horiz-adv-x="839" d="M141 887l37 438q4 49 35 82t82 33h80q29 0 48 -17.5t19 -50.5q0 -10 -2 -21.5t-6 -23.5l-149 -455q-10 -29 -27.5 -46t-46.5 -17q-31 0 -51.5 21.5t-18.5 56.5zM592 887l35 438q4 49 34.5 82t81.5 33h82q29 0 47.5 -17.5t18.5 -50.5q0 -10 -2 -21.5t-6 -23.5l-150 -455 q-10 -29 -27.5 -46t-46.5 -17t-50 21.5t-17 56.5z" />
<glyph unicode="#" horiz-adv-x="1433" d="M92 436q0 43 31 75t76 32h131l61 356h-119q-43 0 -74.5 32t-31.5 75t31.5 74.5t74.5 31.5h156l41 244q6 41 36 64.5t70 23.5q51 0 82 -39t25 -86l-37 -207h322l41 244q6 41 36.5 64.5t71.5 23.5q49 0 81 -39t24 -86l-35 -207h94q43 0 74.5 -30.5t31.5 -75.5 q0 -43 -31.5 -75t-74.5 -32h-131l-62 -356h117q45 0 76 -31t31 -76q0 -43 -31 -74.5t-76 -31.5h-153l-43 -252q-6 -39 -36 -63.5t-71 -24.5q-51 0 -83 39t-23 86l39 215h-322l-43 -252q-6 -35 -33.5 -61.5t-75.5 -26.5q-49 0 -80.5 35.5t-23.5 89.5l37 215h-94 q-45 0 -76 30.5t-31 75.5zM549 543h319l62 356h-320z" />
<glyph unicode="$" horiz-adv-x="1294" d="M131 262q10 47 48 80t85 33q37 0 64 -23q63 -53 129.5 -87t148.5 -50l72 403q-106 29 -182 66t-122 87t-61.5 116.5t0.5 152.5q14 82 57.5 151t110 120t150.5 81.5t182 39.5l8 43q6 37 37 62.5t68 25.5t58.5 -26t14.5 -62l-8 -45q90 -10 162 -39t135 -74q23 -14 37 -38 t8 -60q-10 -47 -49 -80t-86 -33q-31 0 -57 18q-49 33 -97.5 55.5t-99.5 34.5l-70 -393q225 -59 312.5 -157.5t58.5 -264.5q-14 -84 -58 -153.5t-110.5 -120.5t-152.5 -84t-185 -41l-22 -123q-6 -37 -36 -62.5t-67 -25.5t-59.5 25.5t-15.5 62.5l22 127q-225 25 -391 160 q-47 35 -39 98zM559 1055q-12 -66 19.5 -109t142.5 -82l63 363q-100 -10 -157.5 -57t-67.5 -115zM768 207q100 10 159.5 57t73.5 121q12 68 -22.5 113t-144.5 82z" />
<glyph unicode="%" horiz-adv-x="1687" d="M147 1081l3 4q12 76 49 142.5t90 117t120.5 79t143.5 28.5t133 -28.5t92 -79t47.5 -116t-0.5 -138.5v-5q-14 -74 -50 -140t-89 -116.5t-121.5 -80t-144.5 -29.5t-132.5 28.5t-92 79t-48 116t-0.5 138.5zM186 72q4 16 11.5 29.5t17.5 23.5l1165 1284q14 18 35 27.5t43 9.5 q35 0 54.5 -22.5t13.5 -57.5q-4 -16 -11.5 -29.5t-17.5 -23.5l-1165 -1284q-35 -37 -80 -37q-35 0 -53.5 22.5t-12.5 57.5zM332 1085q-16 -88 17.5 -148t103.5 -60q37 0 67.5 16t55 44t42 65.5t23.5 78.5l2 4q14 86 -19.5 147.5t-103.5 61.5q-37 0 -67.5 -16t-55 -44 t-42 -66t-23.5 -78v-5zM884.5 208.5q-12.5 65.5 0.5 139.5v4q14 76 50 142.5t90 117t121.5 79t143.5 28.5t132.5 -28.5t92 -79t48 -116t0.5 -139.5l-2 -4q-12 -74 -49 -140.5t-90.5 -116.5t-121 -79.5t-143.5 -29.5t-132 28.5t-92 78.5t-48.5 115.5zM1067 352 q-16 -88 17.5 -148.5t103.5 -60.5q37 0 68.5 16.5t56 44t42 65.5t23.5 79v4q16 86 -17.5 147.5t-103.5 61.5q-37 0 -67.5 -16.5t-55 -44t-42 -65.5t-23.5 -79z" />
<glyph unicode="&#x26;" horiz-adv-x="1425" d="M147 492q18 109 78 201.5t146 160.5q-18 43 -24.5 94t3.5 105q14 80 56.5 148.5t102.5 120.5t135 82t153 30q80 0 143.5 -30t106.5 -82t60 -120.5t3 -148.5q-8 -47 -47 -80t-86 -33t-75 33t-17 80q10 66 -27 109.5t-100 43.5q-66 0 -118 -44t-65 -109q-12 -82 43 -125 q33 -27 34 -70t-27 -82h-2l-5 -8q-10 -10 -26 -23l-8 -4q-2 -2 -3 -2t-3 -2q-8 -4 -11 -6q-72 -33 -125 -96.5t-67 -142.5q-10 -55 2 -103.5t42 -84.5t74 -56.5t99 -20.5t107.5 20.5t94.5 56.5t71.5 84t39.5 104q0 4 1 6t1 6q-80 0 -116.5 -14.5t-47.5 -24.5 q-18 -16 -24 -45q-2 -8 -2 -13.5v-7.5q6 -45 -23.5 -86t-77.5 -55q-8 -4 -16 -4h-16q-37 0 -63.5 21.5t-31.5 58.5q-2 4 -3 27.5t8 58.5q6 41 32.5 98t87.5 109q127 104 338 104q16 0 34 -1t34 -1h4q18 0 25 2q6 2 6 4q4 0 4 13q4 16 2 32q-2 47 29.5 86t78.5 49t83 -14 t38 -72q2 -37 -4 -81q-10 -57 -44 -109.5t-81 -83.5q-12 -10 -22 -14l-6 -49q-18 -102 -72.5 -191.5t-133.5 -156t-175.5 -105.5t-198.5 -39t-185 39t-137.5 105.5t-78 155.5t-5.5 192z" />
<glyph unicode="'" horiz-adv-x="471" d="M141 887l37 438q4 49 35 82t82 33h80q29 0 49 -17.5t20 -50.5q0 -10 -2 -21.5t-6 -23.5l-149 -455q-23 -63 -76 -63q-31 0 -51.5 21.5t-18.5 56.5z" />
<glyph unicode="(" horiz-adv-x="880" d="M157.5 335q2.5 136 30.5 290q20 115 50 220t75 202q45 94 104.5 175t145.5 140q59 41 126 61.5t134 20.5q53 0 84 -38t21 -91t-54.5 -92t-97.5 -39q-29 0 -49 -6.5t-41 -20.5q-45 -29 -90 -100q-47 -72 -86 -184.5t-61 -247.5q-20 -102 -25.5 -190.5t4.5 -160.5 q8 -72 26.5 -116.5t43.5 -65.5q29 -27 82 -29q53 0 83.5 -37.5t20.5 -91.5q-10 -53 -54 -91t-98 -38h-4q-135 0 -225 80q-41 39 -69.5 89.5t-45.5 107.5q-33 117 -30.5 253z" />
<glyph unicode=")" horiz-adv-x="880" d="M135 -66q10 53 54 92.5t98 39.5q29 0 49 6t41 20q45 29 90 101q47 72 86 184t61 248q20 102 25.5 190t-4.5 160q-8 72 -26.5 117t-43.5 65q-29 27 -82 29q-53 0 -83.5 38t-20.5 91t54 91t97 38h5q135 0 225 -80q41 -39 69.5 -89t44.5 -108q33 -117 31 -253t-31 -289 q-20 -115 -49.5 -220.5t-74.5 -201.5q-45 -94 -104.5 -175t-145.5 -141q-59 -41 -126 -61.5t-134 -20.5q-53 0 -84 38t-21 91z" />
<glyph unicode="*" horiz-adv-x="880" d="M141 1042q4 23 20.5 38.5t35.5 21.5l143 57l-123 55q-16 8 -27.5 24.5t-7.5 39.5q4 25 26.5 43t51.5 18q20 0 41 -20l98 -86l7 135q2 33 22.5 54.5t50.5 21.5q29 0 42.5 -21.5t2.5 -52.5l-41 -137l129 86q27 20 52 20t41 -19t10 -44q-4 -23 -20.5 -38t-35.5 -24l-145 -55 l125 -57q41 -16 35 -62q-4 -27 -27.5 -45t-48.5 -18q-23 0 -43 20l-98 86l-6 -135q-2 -31 -22.5 -52.5t-51.5 -21.5t-43 20.5t-2 53.5l41 135l-129 -86q-27 -20 -49 -20q-27 0 -42.5 19.5t-11.5 45.5z" />
<glyph unicode="+" horiz-adv-x="1269" d="M143 713q10 45 48 76.5t83 31.5h177l34 176q10 43 48 76t83 33q47 0 73 -33t16 -76l-35 -176h176q43 0 69.5 -31.5t16.5 -76.5q-10 -47 -49 -79t-82 -32h-176l-37 -176q-10 -43 -48 -76t-85 -33q-45 0 -71 33t-15 76l37 176h-177q-45 0 -70.5 32t-15.5 79z" />
<glyph unicode="," horiz-adv-x="471" d="M111 100q0 41 27.5 71t66.5 30q37 0 64.5 -22.5t35.5 -57.5v-2h4q0 -4 1 -12.5t1 -26.5q0 -23 -6 -55.5t-22.5 -64.5t-47 -58.5t-81.5 -38.5h-7q-10 0 -18 7t-12 17q-6 27 24 37q43 10 62.5 33t29.5 47q-6 -2 -28 -2q-39 0 -66.5 28.5t-27.5 69.5z" />
<glyph unicode="-" horiz-adv-x="835" d="M135 705q0 31 21.5 52t52.5 21h381q31 0 51.5 -21.5t20.5 -51.5q0 -31 -20.5 -52.5t-51.5 -21.5h-381q-31 0 -52.5 21.5t-21.5 52.5z" />
<glyph unicode="." horiz-adv-x="471" d="M168 102q0 41 30.5 71t71.5 30t71 -30t30 -71t-30 -71.5t-71 -30.5t-71.5 30.5t-30.5 71.5z" />
<glyph unicode="/" d="M11.5 68.5q-17.5 44.5 0.5 87.5l502 1194q18 43 61 60t89 -1q41 -16 58 -60t-1 -85l-502 -1196q-14 -33 -43 -50.5t-61 -17.5q-10 0 -20.5 2t-20.5 6q-45 16 -62.5 60.5z" />
<glyph unicode="0" horiz-adv-x="1454" d="M154.5 448q-13.5 125 11.5 267q25 141 82 266t141 223t191.5 163t228.5 65t207 -64.5t133 -163.5q49 -98 62.5 -223t-11.5 -266t-82 -266t-141 -224q-82 -98 -190.5 -162.5t-229.5 -64.5t-207 64.5t-133 162.5q-49 98 -62.5 223zM384 511q11 -93 44 -159t77 -96.5 t91 -30.5t102.5 30.5t112.5 96.5q55 66 99 159t65 204q18 111 8 205t-45 159q-33 66 -77 96.5t-91 28.5q-47 2 -102.5 -28.5t-112.5 -96.5q-55 -66 -99 -160t-63 -204q-20 -111 -9 -204z" />
<glyph unicode="1" horiz-adv-x="686" d="M84 1110q-16 41 3 87t65 69l278 149q2 2 3 2t3 2q8 4 13 4q4 2 6 2t6 2q4 0 5 1.5t5 1.5q4 2 12 2h9h2q8 0 12 -2h10l5 -2.5l5 -2.5q2 -2 4 -2t5 -2q8 -4 10 -4q2 -2 4 -3t4 -3l8 -8l6 -6q2 -2 2 -4t2 -4q2 -4 3 -5.5t4 -5.5l2 -2q0 -4 2 -6q0 -4 1 -6t1 -4q0 -4 1 -6 t1 -6v-11v-12q-2 -2 -1 -3t-1 -3l-213 -1208q-8 -47 -47 -80t-86 -33t-75 32.5t-18 80.5l179 1009l-91 -49q-33 -16 -61 -16q-61 0 -88 55z" />
<glyph unicode="2" horiz-adv-x="1208" d="M108.5 115q10.5 47 51.5 80l702 546q51 41 81 92.5t40 104.5q18 100 -37 178q-33 43 -80 64.5t-100 21.5q-47 0 -96 -16.5t-95 -50.5l-73 -58q-41 -33 -87 -29.5t-73 37.5q-25 35 -14.5 81t51.5 79l74 58q82 63 173 95t179 32q100 0 188 -41t148 -121q53 -72 69.5 -157 t-0.5 -173q-16 -100 -74.5 -196.5t-150.5 -168.5l-448 -350h434q47 0 74.5 -33.5t19.5 -80.5q-10 -47 -48 -80t-85 -33h-723h-4h-4q-51 0 -76 37q-27 35 -16.5 82z" />
<glyph unicode="3" horiz-adv-x="1249" d="M162.5 232q9.5 47 50.5 81q41 35 88 35t76 -35q33 -41 80 -60.5t100 -19.5q113 0 211 80q47 41 75.5 92.5t39.5 104.5q10 53 -1.5 103.5t-43.5 91.5q-35 41 -81 60t-100 21q-49 -2 -79 37l-3 2q-29 35 -20.5 82t47.5 82l246 213h-330q-49 0 -77.5 34t-18.5 83q8 47 48 81 t89 34h604q47 0 76 -34t18 -81q-2 -16 -8 -29.5t-14 -25.5q-6 -8 -12 -15.5t-15 -13.5l-305 -266q78 -39 127 -101q61 -74 82 -167t4 -191q-16 -98 -70.5 -191.5t-142.5 -168.5q-88 -74 -188.5 -112t-198.5 -38t-185 38t-149 112q-29 35 -19.5 82z" />
<glyph unicode="4" horiz-adv-x="1359" d="M110.5 365q4.5 47 39.5 81l923 940q0 4 4 5q2 4 4 5t6 5q2 2 4.5 3t4.5 3l12 6q4 4 8 4l12 6q4 0 5.5 1t5.5 1q4 2 12 2q4 2 12 3h4h7q6 0 10 -3q8 0 10 -2q4 0 6 -1t4 -1q4 -2 5 -2t5 -2q2 -2 4.5 -3t4.5 -3t4 -3t4 -3q2 0 2 -1t2 -1l4 -4q2 -2 3 -4t3 -4t3 -4.5t3 -4.5 q0 -2 4 -10q2 -2 2 -4t3 -6q0 -6 2 -8v-13q2 -2 2 -8q0 -4 -1 -7t-1 -7v-4l-146 -828h21q47 0 74.5 -32.5t17.5 -79.5q-8 -47 -47 -81t-86 -34h-21l-26 -153q-8 -47 -47 -80t-87 -33q-47 0 -74.5 32.5t-19.5 80.5l29 153h-641h-4q-39 0 -66 27q-33 29 -28.5 76zM481 489h408 l90 506z" />
<glyph unicode="5" horiz-adv-x="1239" d="M141.5 234q8.5 47 48.5 81q41 35 88.5 35t75.5 -35q35 -41 81 -60t100 -22q53 2 108 21.5t102 60.5t77 92.5t40 104.5t-1 103.5t-46 91.5t-81 60t-99 19t-108.5 -19t-102.5 -60q-41 -35 -88 -35t-76 35q-6 6 -9 13t-7 15v4q-2 4 -2 6.5t-2 6.5v12v4q-2 14 4 35l155 528 q16 55 66 82q2 2 4 3t4 3l8 4q25 12 56 13h604q47 0 75.5 -34t18.5 -83q-8 -47 -48 -81t-87 -34h-504l-61 -203q70 18 141 19q98 0 184 -37t148 -113q61 -74 81.5 -167t4.5 -191t-70.5 -192.5t-142.5 -167.5q-88 -74 -188.5 -112t-198.5 -38t-185.5 37t-146.5 113 q-29 35 -20.5 82z" />
<glyph unicode="6" horiz-adv-x="1314" d="M150 453q4 29 7 58.5t9 59.5q18 102 54 209t91 211q57 102 137 193.5t189 156.5q72 43 153.5 68t172.5 29q47 2 75.5 -30t22.5 -79t-44 -81t-85 -36q-59 -4 -109.5 -19t-93.5 -40q-86 -53 -156 -143q-10 -12 -18 -25.5t-18 -28.5q49 18 100 29.5t104 11.5 q102 0 186.5 -38.5t139.5 -106.5t78.5 -159t5.5 -193t-73.5 -192.5t-134.5 -158t-176 -106.5t-200 -39q-96 0 -176 35t-136 94.5t-84 141t-19 176.5zM383 500q-10 -55 3 -104.5t43 -85.5t76 -57.5t101 -21.5t108.5 21.5t96.5 57.5t72.5 85t40.5 105q10 55 -2.5 104t-42 86 t-75.5 58.5t-102 21.5q-55 0 -108 -21.5t-97 -58.5t-74 -86t-40 -104z" />
<glyph unicode="7" horiz-adv-x="1202" d="M148.5 66.5q-9.5 44.5 17.5 87.5l627 1048h-529q-47 0 -74.5 34t-19.5 81q10 47 48 80t85 33h698q16 0 25 -3q20 -2 37 -16l6 -6q2 -4 4 -5t4 -3q2 -4 6 -8q4 -8 4 -11q2 -2 2.5 -3t2.5 -3q2 -4 2 -6t2 -6v-10q2 -3 2 -11q0 -27 -8 -45q-2 -12 -11 -22l-721 -1206 q-20 -33 -51 -51.5t-65 -18.5q-10 0 -21.5 2t-21.5 6q-41 18 -50.5 62.5z" />
<glyph unicode="8" horiz-adv-x="1290" d="M162 483q23 129 100.5 235.5t188.5 172.5q-51 88 -31 201q12 70 50 131t91 107t120 73t136 27q70 0 127 -27t95 -73t53.5 -107.5t3.5 -130.5q-23 -115 -105 -201q88 -66 129 -172.5t19 -235.5q-18 -100 -71.5 -189t-132.5 -154.5t-175 -104.5t-197 -39q-100 0 -182 39 t-137.5 104.5t-78 154.5t-3.5 189zM383 483q-10 -55 3 -103t43 -84t74 -56.5t99 -20.5t107.5 20.5t94.5 56.5t71.5 84t39.5 103q8 55 -4 103.5t-40.5 85.5t-73.5 57.5t-101 20.5q-55 0 -107 -20.5t-94 -57.5t-72 -85t-40 -104zM641 1092q-8 -47 20.5 -80t75.5 -35 q47 2 86 34.5t49 80.5q8 47 -19.5 80.5t-76.5 33.5q-47 0 -86 -33.5t-49 -80.5z" />
<glyph unicode="9" horiz-adv-x="1314" d="M182 936q18 102 73.5 192.5t135.5 158t177.5 106.5t199.5 39q96 0 176 -35t135.5 -94.5t83 -140.5t21.5 -175v-4q-4 -29 -7 -58.5t-10 -60.5q-16 -102 -52 -208.5t-93 -211.5q-57 -102 -136 -193t-190 -157q-72 -41 -152.5 -66.5t-170.5 -29.5h-6q-45 0 -73 30.5 t-22 77.5q8 47 46 82t85 37q59 2 108.5 17.5t94.5 42.5q84 47 154 143q20 23 37 53q-98 -41 -205 -41q-102 0 -186 39t-139.5 106.5t-79 158t-5.5 192.5zM410 936q-10 -55 2 -104.5t42.5 -86t77 -58t101.5 -21.5t108.5 21.5t96.5 58t72.5 86t39.5 104.5t-2 104.5t-43 85 t-77 57t-101 21.5t-108.5 -21.5t-96.5 -57t-72.5 -85t-39.5 -104.5z" />
<glyph unicode=":" horiz-adv-x="491" d="M186 102q8 41 44 71t77 30t65.5 -30t16.5 -71q-6 -41 -42 -71.5t-77 -30.5t-65.5 30.5t-18.5 71.5zM338 969q8 41 44 70.5t77 29.5t65.5 -29.5t16.5 -70.5t-43 -72t-76 -31t-66.5 31t-17.5 72z" />
<glyph unicode=";" horiz-adv-x="491" d="M123 -109q-2 12 7 22.5t24 14.5q45 10 68.5 33t39.5 47q-8 -2 -31 -2q-39 0 -60 28.5t-13 69.5t40.5 71t71.5 30q37 0 60.5 -22.5t25.5 -57.5v-2h2v-12.5t-4 -26.5q-4 -23 -16 -55.5t-34.5 -64.5t-59.5 -58.5t-90 -38.5h-7q-10 0 -17 7t-7 17zM324 965q10 41 46 70.5 t76 29.5q41 0 65.5 -29.5t14.5 -70.5q-8 -41 -42.5 -72t-75.5 -31t-67 31t-17 72z" />
<glyph unicode="&#x3c;" horiz-adv-x="1269" d="M123 694q0 4 1 5t1 6v14q0 2 1 4t1 4q2 4 3 8t3 8q0 4 2 7q4 12 8 18l2 2q12 23 35 41l684 586q45 39 99.5 39t85.5 -39q33 -39 23.5 -92.5t-54.5 -92.5l-578 -493l404 -494q31 -39 21.5 -93t-54.5 -93q-47 -37 -100 -37t-86 39l-478 586q-8 6 -10 16q-2 2 -2 4 q-4 4 -4 8t-2 9q-2 2 -2 6q-2 4 -2 14q0 2 -1 4t-1 6z" />
<glyph unicode="=" horiz-adv-x="1269" d="M162 604q0 31 21.5 52.5t52.5 21.5h380q31 0 51.5 -21.5t20.5 -52.5t-20.5 -52.5t-51.5 -21.5h-380q-31 0 -52.5 21.5t-21.5 52.5zM162 834q0 29 21.5 50t52.5 21h380q31 0 51.5 -21.5t20.5 -49.5q0 -31 -20.5 -51.5t-51.5 -20.5h-380q-31 0 -52.5 20.5t-21.5 51.5z" />
<glyph unicode="&#x3e;" horiz-adv-x="1269" d="M201.5 132q9.5 54 56.5 93l578 494l-404 493q-33 39 -22.5 92.5t55.5 92.5t99 39t85 -39l479 -586q8 -12 11 -18l2 -2q4 -12 6 -17q0 -2 1 -3t1 -3q0 -10 2 -14v-11v-12q0 -8 -2 -12q0 -6 -2 -8q0 -8 -4 -17q0 -2 -1 -3t-1 -3q-4 -4 -5 -9t-6 -9l-2 -4q-4 -4 -7 -9.5 t-7 -9.5l-2 -4l-8 -8l-8 -8l-686 -586q-23 -20 -48.5 -29.5t-50.5 -9.5q-55 0 -86 37q-33 39 -23.5 93z" />
<glyph unicode="?" horiz-adv-x="1093" d="M88 1126.5q-4 40.5 25 79.5q78 102 192.5 164t239.5 62q94 0 170 -36t127 -97.5t71.5 -143.5t4.5 -176q-14 -80 -53.5 -152.5t-95.5 -131t-127 -98.5t-148 -58l-27 -142q-8 -45 -44 -74.5t-79 -29.5t-68.5 29.5t-17.5 74.5l39 226q0 2 1 2t1 2v4q8 43 44 73.5t79 30.5 q51 0 98 19.5t86 52.5t65.5 77t37.5 95q8 49 -3.5 93t-39 77t-68.5 52.5t-90 19.5q-68 0 -129.5 -33t-102.5 -88q-29 -37 -71.5 -48.5t-77.5 11.5t-39 63.5zM207 104l6 39q8 45 44 76t81 31q43 0 68.5 -31t17.5 -76l-6 -39q-8 -45 -44 -75.5t-81 -30.5q-43 0 -68.5 30.5 t-17.5 75.5z" />
<glyph unicode="@" horiz-adv-x="2007" d="M178 721q27 147 105.5 278t193.5 228.5t255 154t290 56.5q147 0 268 -56.5t201 -154t113.5 -228.5t7.5 -278q-16 -90 -51 -172t-86 -156v-2l-2 -2q-4 -4 -20.5 -23.5t-45.5 -46.5t-73 -55t-103 -43q-25 -8 -55 -8q-47 0 -86 22.5t-56 55.5q-10 16 -14 30.5t-8 30.5 q-45 -23 -93.5 -35t-97.5 -12q-84 0 -150.5 34t-109.5 91q-45 57 -62.5 131t-0.5 160q16 86 59 159.5t107 131.5q63 57 141 91t164 34q84 0 150.5 -34t109.5 -91q45 -57 62.5 -131t0.5 -160q0 -6 -4 -14v-9l-43 -243l8 4t9 6q10 10 19 20.5t11 14.5q70 98 92 221 q18 100 -5 190t-77.5 156t-137.5 104.5t-183 38.5q-102 0 -197.5 -38.5t-174.5 -104.5t-132 -156t-71 -190q-18 -102 5 -191.5t77.5 -155t136.5 -104.5t184 -39q31 0 62.5 3.5t60.5 11.5q47 10 83 -12.5t40 -69.5t-27 -87t-78 -50q-94 -23 -182 -23q-147 0 -268 56.5 t-201 153.5t-113.5 228t-7.5 279zM725 721q-14 -82 29 -135q37 -53 108 -54q70 1 127 54q29 25 49.5 59.5t26.5 75.5q8 41 0 75.5t-29 59.5q-37 53 -108 53q-70 0 -127 -53q-29 -25 -49.5 -59.5t-26.5 -75.5z" />
<glyph unicode="A" horiz-adv-x="1323" d="M132 66q-3 14 -3 27q0 30 16 61l666 1206q18 35 52 54.5t69 19.5t61.5 -19.5t34.5 -54.5l240 -1206q3 -12 3 -24q-1 -33 -21 -64q-28 -43 -74 -60q-23 -6 -41 -6q-35 0 -60.5 19.5t-32.5 54.5l-53 264h-500l-147 -264q-18 -35 -51 -54.5t-68 -19.5q-20 0 -39 6 q-41 16 -52 60zM614 563h330l-88 441z" />
<glyph unicode="B" horiz-adv-x="1216" d="M225 111l213 1208q8 47 47 80t86 33h2h2h285q80 0 145.5 -31t109.5 -84q45 -53 63 -124q11 -40 10 -84q0 -33 -6 -69q-12 -66 -43 -125t-76 -106q84 -59 123 -157q25 -63 26 -135q0 -39 -8 -81q-16 -90 -64 -170t-119 -139t-157 -94t-176 -35h-364h-5h-2q-47 0 -75 32 q-20 24 -20 57q0 11 3 24zM471 225h256q43 0 85 16.5t76 45t57.5 67.5t31.5 82q4 19 4 37q0 23 -6 45q-10 39 -33.5 68.5t-59.5 46t-79 16.5h-256zM586 877h176q68 0 124 47.5t68 115.5q3 16 3 31q-1 49 -31 85q-40 48 -107 48h-174z" />
<glyph unicode="C" horiz-adv-x="1472" d="M219 717q27 150 108 279.5t197.5 227t260 154t294.5 56.5q129 0 238.5 -41t189.5 -115q30 -27 30 -68v-8q-3 -47 -38 -84t-82 -42q-7 -1 -14 -1q-38 0 -66 25q-57 49 -132 77.5t-167 28.5q-104 0 -203.5 -39t-179.5 -104q-82 -68 -137 -156t-72 -190q-8 -44 -8 -86 q0 -55 14 -105q24 -88 80 -155q57 -66 142.5 -105t191.5 -39q92 0 177 28t159 79q33 24 70 24q8 0 17 -2q46 -6 69 -43q14 -23 14 -49q0 -16 -6 -34q-14 -46 -57 -74q-106 -74 -229.5 -115t-252.5 -41q-152 0 -275.5 56.5t-206.5 152.5t-117 227q-20 75 -20 156q0 61 11 125 z" />
<glyph unicode="D" horiz-adv-x="1472" d="M225 115l211 1206q10 47 49 80t86 33h242q147 0 268 -56.5t201 -154t114 -227.5q19 -72 19 -151q0 -62 -12 -128q-27 -147 -105.5 -278.5t-193.5 -228.5t-256 -153.5t-289 -56.5h-240h-2q-47 0 -75 34q-20 25 -20 57q0 11 3 24zM471 227h129q100 0 196.5 39t175.5 104.5 t132.5 155t71.5 191.5q8 44 8 86q0 55 -14 105q-24 89 -78 155.5t-137 105.5t-183 39h-129z" />
<glyph unicode="E" horiz-adv-x="1214" d="M223 109l213 1208q8 47 47 80t86 33h2h2h664q47 0 75 -33q21 -26 21 -60q0 -10 -2 -20q-10 -47 -48 -81t-85 -34h-555l-68 -377h480q47 -1 75 -33q20 -24 20 -55q0 -12 -3 -24q-8 -47 -47 -80t-86 -33h-477l-68 -377h555q46 1 74 -33q21 -26 22 -61q0 -10 -2 -20 q-10 -47 -48 -80t-85 -33h-666h-2q-47 0 -75 32q-21 25 -21 60q0 10 2 21z" />
<glyph unicode="F" horiz-adv-x="1228" d="M225 113l213 1208q8 47 47 80t86 33h2h2h664q47 0 75 -33q20 -24 20 -56q0 -12 -3 -24q-8 -47 -47 -81t-86 -34h-553l-67 -377h477q47 -1 75 -33q21 -25 21 -59q0 -10 -2 -20q-10 -47 -48 -80t-85 -33h-477l-88 -491q-8 -47 -47.5 -80t-86.5 -33t-75 33q-20 24 -20 56 q0 11 3 24z" />
<glyph unicode="G" horiz-adv-x="1638" d="M219 719q27 150 108 280.5t197.5 227t260 153t294.5 56.5q129 0 238.5 -41t189.5 -115q30 -27 30 -67v-8q-3 -46 -38 -83t-82 -43q-8 -1 -16 -1q-37 0 -64 24q-57 51 -132 79.5t-167 28.5q-106 0 -204.5 -38.5t-180.5 -106.5q-80 -68 -135 -156t-72 -190q-8 -43 -8 -85 q0 -54 14 -104q23 -90 80 -155q57 -68 142.5 -107t191.5 -39q76 0 148.5 20.5t138.5 57.5l49 273h-284q-47 0 -75 32q-21 24 -21 56q0 12 3 24q8 47 47 80t86 33h394h2q47 0 74 -33q22 -26 22 -60q0 -9 -2 -20l-78 -442q-2 -10 -10 -31l-6 -12l-2 -2q-16 -29 -43 -47 q-106 -72 -229.5 -114t-252.5 -42h-2q-152 0 -274.5 56.5t-205.5 153.5t-117 227q-20 74 -20 155q0 61 11 125z" />
<glyph unicode="H" horiz-adv-x="1556" d="M225 113l211 1208q10 47 49 80t86 33t75 -33q21 -24 21 -56q0 -11 -3 -24l-86 -492h530l86 492q10 47 48 80t85 33t75 -33q21 -25 21 -58q0 -11 -2 -22l-213 -1208q-8 -47 -47 -80t-86 -33t-75 33q-21 26 -21 60q0 10 2 20l86 491h-530l-86 -491q-8 -47 -47 -80t-87 -33 q-47 0 -75 33q-20 24 -20 56q0 11 3 24z" />
<glyph unicode="I" horiz-adv-x="624" d="M238 111l213 1208q10 47 48 80t85 33q46 0 74 -33q21 -26 22 -60q0 -10 -2 -20l-213 -1208q-8 -47 -47 -80t-86 -33t-75 32q-21 25 -21 59q0 10 2 22z" />
<glyph unicode="J" horiz-adv-x="1216" d="M94 350q-1 8 -1 15q0 37 24 71q29 42 76 58q19 6 36 6q26 0 49 -14q37 -21 44 -66q12 -86 76 -142q61 -53 150 -53h7q57 0 113.5 21.5t101.5 60.5t76 89t41 110l143 813q8 47 47 80t86 33t75 -33q21 -25 21 -58q0 -11 -2 -22l-143 -813q-18 -104 -74.5 -197.5 t-137.5 -162t-181 -108.5t-205 -40q-86 0 -157.5 26.5t-127 72.5t-91.5 110.5t-46 142.5z" />
<glyph unicode="K" horiz-adv-x="1464" d="M225 113l213 1208q8 47 47 80t86 33t75 -33q21 -24 21 -56q0 -11 -3 -24l-105 -592l791 672q41 33 87 33t72 -33q23 -27 23 -62q0 -9 -2 -19q-8 -46 -47 -79l-537 -457l389 -598q14 -23 14 -51q-1 -16 -5 -33q-14 -47 -54 -75q-16 -14 -36.5 -20.5t-39.5 -6.5 q-25 0 -46 10t-33 31l-377 584l-254 -217l-53 -295q-8 -47 -47 -80t-87 -33q-47 0 -75 33q-20 24 -20 56q0 11 3 24z" />
<glyph unicode="L" horiz-adv-x="1267" d="M225 119l213 1206q8 47 47 80t86 33t75 -33q21 -24 21 -56q0 -11 -3 -24l-193 -1094h555q46 -1 74 -33q21 -25 22 -59q0 -10 -2 -20q-10 -47 -49 -81t-86 -34h-663q0 2 -3 2q0 -2 -2 -2q-47 0 -75 34q-20 25 -20 57q0 11 3 24z" />
<glyph unicode="M" horiz-adv-x="1777" d="M223 117l213 1206q8 47 47 80t86 33h2h8q23 0 41 -10q22 -12 35 -37l308 -566l507 568q42 45 94 45h9h2q47 0 73 -33q20 -25 21 -59q0 -10 -2 -21l-213 -1206q-8 -47 -47 -81t-86 -34t-75 34q-21 26 -21 60q0 10 2 21l151 860l-364 -410q-43 -47 -101 -47h-4h-2 q-27 0 -49 12.5t-35 34.5l-221 410l-151 -860q-10 -47 -48 -81t-86 -34q-47 0 -75 34q-21 26 -21 60q0 10 2 21z" />
<glyph unicode="N" horiz-adv-x="1617" d="M225 113l211 1202q4 29 20.5 54.5t45.5 41.5q33 23 68 23q9 0 18 -2q45 -8 65 -46l504 -925l150 854q10 47 48 79.5t85 32.5q46 -1 74 -33q21 -25 22 -59q0 -10 -2 -20l-213 -1202q-8 -47 -47 -80t-86 -33q-51 0 -78 39q-2 4 -4 7t-4 7l-500 918l-151 -858 q-8 -47 -47 -80t-87 -33q-47 0 -75 33q-20 24 -20 56q0 11 3 24z" />
<glyph unicode="O" horiz-adv-x="1740" d="M184 715q27 147 101.5 276t185.5 228q111 98 245 155.5t277 57.5q141 0 256 -57.5t191 -155.5q74 -97 104 -227q15 -68 14 -141q0 -66 -12 -136q-25 -147 -99.5 -276.5t-184.5 -227.5q-111 -98 -245.5 -155.5t-277.5 -57.5t-257.5 57.5t-188.5 155.5q-75 98 -105 227 q-16 69 -16 143q0 65 12 134zM412 715q-9 -49 -8 -95q0 -50 10 -98q20 -90 71 -157q51 -66 126 -103t169 -39q92 2 180.5 39t163.5 103q74 68 126.5 156.5t70.5 193.5q8 49 8 94q-1 52 -11 99q-20 89 -71 155t-127 103.5t-168 37.5t-181 -37.5t-163 -103.5t-126 -155 t-70 -193z" />
<glyph unicode="P" horiz-adv-x="1193" d="M223 115l213 1208q10 47 48 80t85 33h2h2h363q92 0 166 -35t123 -94.5t69 -139.5q11 -44 12 -90q0 -39 -8 -80q-16 -92 -64 -172t-119 -139t-157 -94t-176 -35h-254l-77 -442q-8 -47 -47.5 -80t-86.5 -33t-75 33q-21 26 -21 60q0 9 2 20zM569 784h252q43 0 85 16.5 t76 46.5t57.5 68.5t31.5 81.5q4 19 4 37q0 23 -6 45q-10 39 -33.5 68t-59.5 45t-79 16h-254z" />
<glyph unicode="Q" horiz-adv-x="1728" d="M174 707q25 158 104.5 297t196.5 243q119 104 262.5 166t296.5 62q154 0 277 -61.5t200 -166.5q78 -104 111 -243q18 -75 18 -154q0 -70 -14 -143q-25 -160 -105.5 -297.5t-195.5 -241.5q-63 -53 -131 -96t-139 -72l-47 -20q59 -35 113.5 -55.5t105.5 -20.5q47 0 97 16.5 t120 63.5q40 26 81 26h14q48 -6 71 -47q16 -26 16 -55q0 -16 -6 -34q-14 -48 -61 -81q-96 -66 -189.5 -97.5t-183.5 -31.5h-2q-111 0 -198 37t-161 86q-59 33 -118 33q-27 0 -52.5 -5t-47 -11.5t-36 -12.5t-18.5 -8q-29 -13 -57 -13h-10q-33 3 -56 19q-4 2 -6 2t-4 2 q0 2 -2 2q-20 20 -27 45q-4 15 -4 30q0 32 17 64q26 48 75 68l4 2q-59 33 -108 74t-86 90q-82 104 -113 242q-16 71 -16 148q0 72 14 149zM414 707q-8 -51 -8 -99q0 -56 11 -107q21 -95 75 -167q55 -70 136 -111t179 -41t193.5 41t175.5 111q78 72 135 167t75 206 q8 52 8 100q0 57 -11 108q-21 95 -74 166q-55 72 -136 110t-182 38q-98 0 -192 -38t-174 -110q-78 -72 -135.5 -166.5t-75.5 -207.5z" />
<glyph unicode="R" horiz-adv-x="1280" d="M197 113l213 1208q8 47 47 80t86 33h2h364q90 0 164 -35t123 -95q50 -59 70 -139q12 -45 11 -93q0 -38 -7 -77q-16 -104 -74.5 -191t-142.5 -147q33 -35 55 -75q23 -44 31 -100q4 -25 4 -52q0 -33 -6 -70q-10 -47 -11.5 -75.5t0.5 -44.5q23 -10 38.5 -27.5t19.5 -42.5 q1 -8 1 -16q-1 -36 -23 -71q-28 -42 -75 -56q-20 -8 -47 -9q-16 0 -36.5 5.5t-38.5 17.5q-39 29 -54 74q-16 43 -16 101t14 144q4 29 2 49.5t-10 36.5q-8 18 -21.5 33t-29.5 29q-29 23 -60.5 34t-46.5 15h-241l-80 -444q-8 -47 -47 -80t-86 -33t-75 33q-20 24 -20 55 q0 12 3 25zM541 782h254q43 0 85 16.5t75.5 46t57 68.5t31.5 82q4 19 4 37q0 23 -6 45q-10 39 -34.5 68t-60.5 45t-79 16h-252z" />
<glyph unicode="S" horiz-adv-x="1366" d="M144 268q3 40 36 76q33 33 76 37q6 1 11 1q36 0 61 -24q27 -27 65.5 -54.5t84.5 -50t98.5 -35.5t107.5 -13q76 0 143.5 20.5t116.5 53.5q51 35 78 70.5t35 72.5q2 12 2 23q0 22 -8 40q-8 16 -19.5 30.5t-32.5 29.5q-39 29 -105.5 54.5t-152.5 41.5h-2h-2 q-68 14 -128 32.5t-113 45.5q-53 29 -94.5 65.5t-65.5 89.5q-22 50 -22 106q0 27 5 56q16 92 76 167t137 124q78 51 171.5 79t191.5 28q72 0 132 -15.5t109.5 -40t89.5 -52.5t74 -52q33 -23 33 -65t-28 -76q-29 -35 -72 -45q-12 -3 -23 -2q-29 0 -51 18q-69 49 -139 88 q-67 37 -151 37h-9h-13q-63 1 -118 -17q-61 -20 -106 -49q-86 -59 -99 -127q-6 -31 6 -55q8 -23 43 -51q35 -29 96.5 -50.5t139.5 -37.5h4q74 -14 139.5 -35t122.5 -49q53 -29 98.5 -69t69.5 -95q23 -53 23 -111q0 -30 -6 -61q-16 -96 -78 -176t-146 -133q-86 -53 -184 -83 t-205 -30q-82 0 -152.5 18.5t-131 48t-108.5 64.5t-85 70q-26 24 -26 60v7z" />
<glyph unicode="T" horiz-adv-x="1327" d="M115 1321q8 47 47 80t86 33h870q47 0 75 -33q21 -25 21 -58q0 -11 -2 -22q-8 -47 -47 -80t-86 -33h-323l-193 -1093q-8 -47 -47 -81t-86 -34q-46 0 -74 34q-20 25 -21 57q0 12 3 24l192 1093h-323q-47 0 -75 33q-20 24 -20 56q0 11 3 24z" />
<glyph unicode="U" horiz-adv-x="1667" d="M272 592l127 729q10 47 49 80t87 33q47 0 75 -33q20 -24 20 -56q0 -12 -3 -24l-129 -729q-5 -33 -5 -63q0 -41 9 -79q16 -66 57 -115.5t102.5 -78.5t137.5 -29t147.5 29t130 78t99.5 115.5t53 142.5l129 729q8 47 47 80t86 33t75 -33q21 -26 21 -60q0 -10 -2 -20 l-129 -729q-23 -123 -87 -230.5t-159.5 -187.5t-211 -127t-238.5 -47t-222.5 47t-165.5 127t-94 188q-15 60 -16 124q0 51 10 106z" />
<glyph unicode="V" horiz-adv-x="1536" d="M129 1278q-3 13 -3 25q0 32 18 63q26 43 73 61q24 9 46 9q21 0 41 -8q40 -17 50 -62l236 -958l571 958q27 45 73 62q22 8 44 8t43 -9q41 -18 51 -61q3 -12 3 -24q0 -31 -19 -64l-721 -1206q-8 -12 -12 -17q-2 -2 -2 -4q-4 -4 -7.5 -6t-7.5 -6l-4 -4q-6 -6 -14 -10 q-2 -2 -4 -2q-12 -8 -19 -11h-2l-2 -2q-12 -4 -18 -4l-4 -2q-6 0 -11.5 -1t-9.5 -1q-6 0 -11 1t-9 1q-2 0 -2 1t-2 1q-4 0 -17 4l-2 2q-6 2 -18 11l-2 2q-4 2 -5 4t-6 6l-4 4q-4 8 -8 14v2q-6 6 -6 17z" />
<glyph unicode="W" horiz-adv-x="2256" d="M137 1278q-3 12 -3 25q0 31 18 61q24 43 71 61q24 9 47 9q21 0 41 -8q41 -17 51 -60l234 -958l381 634q20 35 52 52.5t67 17.5t61.5 -17.5t34.5 -52.5l156 -634l573 958q27 43 72 60q22 8 43 8q22 0 43 -9q41 -18 51 -61q3 -12 3 -24q0 -31 -19 -62l-721 -1206l-13 -19 l-2 -2q-4 -4 -6 -7t-6 -7q-2 0 -3 -1t-3 -1q-8 -8 -14 -12q-2 0 -3 -3q-4 -4 -10 -5t-10 -5h-2h-2q-12 -4 -16 -6h-7q-6 -2 -20 -2q-12 0 -19 2h-6q-6 2 -14 6h-4q-4 4 -8 5t-8 5l-3 3l-12 12l-2 2q-4 4 -5 7t-3 7l-2 2l-6 19l-158 641l-383 -641l-12 -19q-2 0 -2 -1t-2 -1 q-4 -4 -6.5 -7t-6.5 -7q-2 0 -2 -1t-2 -1q-4 -4 -7 -6t-7 -6q-2 0 -4 -3q-4 -4 -9 -5t-10 -5h-2h-4q-4 -2 -8 -3t-8 -3h-6q-6 -2 -19 -2h-2q-12 0 -18 2h-6q-8 4 -15 6h-2h-2q-4 4 -8 5t-8 5q-2 2 -2 3q-8 8 -10 12q-2 0 -2 1t-2 1q-2 4 -4.5 7t-4.5 7v2q-4 6 -8 19z" />
<glyph unicode="X" horiz-adv-x="1478" d="M197 182l487 537l-297 536q-14 23 -14 49q1 17 7 36q16 46 58 75q33 22 68 22q10 1 20 -1q45 -8 66 -45l266 -480l434 480q35 37 82 45q10 2 20 2q34 0 60 -23q34 -28 34 -72v-3q-1 -46 -36 -85l-487 -536l297 -537q13 -21 13 -46q0 -18 -7 -37q-17 -46 -58 -74 q-39 -23 -71 -23q-55 0 -84 47l-264 479l-435 -479q-20 -23 -46.5 -35t-53.5 -12q-35 0 -61 23q-34 28 -34 72q0 47 36 85z" />
<glyph unicode="Y" horiz-adv-x="1236" d="M133 1335q17 45 57 74q34 23 70 23q9 0 18 -2q46 -7 68 -46l268 -483l439 483q35 39 82 46q10 2 19 2q35 0 60 -23q34 -28 34 -72q0 -46 -36 -86l-526 -579l-98 -561q-8 -47 -47 -80t-86 -33t-75 32q-22 26 -22 60q0 10 2 21l101 561l-322 579q-13 22 -13 47q0 18 7 37z " />
<glyph unicode="Z" horiz-adv-x="1366" d="M145 90q0 4 1 7t1 7v7v2q4 12 5 14q2 4 2 8l6 12q2 4 3 5.5t3 5.5q2 2 3 4t3 4q2 4 8 10v2l932 1026h-657q-47 0 -75 34q-22 26 -22 61q0 10 2 20q8 47 47 80t87 33h882h2q8 0 13 -2h8q4 -2 6 -2.5t6 -2.5q2 -2 4 -2t4 -2q4 0 8 -4q4 -2 5.5 -3t5.5 -3l2 -2l4 -4 q2 -4 4 -5t4 -3l4 -8q2 -4 3 -5.5t3 -5.5q2 -2 2 -4t2 -4q0 -4 1 -6t1 -4q0 -4 1 -6t1 -4v-13v-12q0 -4 -2 -6v-2q0 -6 -4 -14q0 -6 -2 -9q-4 -8 -6 -10q0 -4 -4 -12q-4 -4 -6 -8q-4 -2 -8 -11l-2 -2l-932 -1026h659q47 1 75 -33q20 -24 20 -56q0 -12 -3 -25q-8 -47 -47 -80 t-86 -33h-880q-14 0 -21 2q-4 0 -6 2q-2 0 -14 4q-2 2 -4 2l-13 6l-4 4q-2 0 -2 2q-2 0 -3 2.5t-3 2.5q-2 4 -6 8q-2 4 -3 5t-3 5q-4 4 -4 8q-4 4 -4 10q-2 2 -2 4.5t-3 4.5v12q0 2 -1 4t-1 4z" />
<glyph unicode="[" horiz-adv-x="880" d="M211 -133l258 1454q8 51 49 87t92 36h422q41 0 64.5 -29t17.5 -69q-8 -41 -42 -69t-75 -28h-305l-229 -1310h305q41 0 64.5 -28t15.5 -69q-6 -41 -40 -69.5t-75 -28.5h-422q-51 0 -79.5 36t-20.5 87z" />
<glyph unicode="\" d="M42 1349q17 44 58 60q45 18 88 1t62 -60l502 -1194q18 -43 0.5 -87.5t-62.5 -60.5q-10 -4 -20.5 -6t-20.5 -2q-33 0 -61.5 17.5t-42.5 50.5l-502 1196q-18 41 -1 85z" />
<glyph unicode="]" horiz-adv-x="880" d="M121 -158q8 41 42 69t75 28h305l229 1310h-305q-41 0 -64.5 28t-15.5 69q6 41 40 69.5t75 28.5h422q51 0 79.5 -36t20.5 -87l-258 -1454q-8 -51 -49 -87t-92 -36h-422q-41 0 -64.5 28.5t-17.5 69.5z" />
<glyph unicode="^" d="M170 1040q6 27 37 62l250 266q31 35 63.5 54.5t75.5 19.5h18q43 0 68 -19.5t45 -54.5l139 -266q16 -35 11 -62q-4 -18 -22.5 -29.5t-43.5 -11.5q-47 0 -74.5 18.5t-56.5 72.5l-109 190l-186 -190q-53 -53 -87 -72t-79 -19q-25 0 -39 11.5t-10 29.5z" />
<glyph unicode="_" horiz-adv-x="1228" d="M-37 -231q8 41 42 68.5t75 27.5h1237q41 0 62.5 -27.5t13.5 -68.5q-10 -41 -44 -69t-75 -28h-1237q-41 0 -62.5 28t-11.5 69z" />
<glyph unicode="`" d="M334 1456q0 14 13 28.5t34.5 26t48.5 18.5t51 7q61 0 99 -59l116 -181q6 -10 12.5 -22t6.5 -23q0 -20 -17.5 -31.5t-46.5 -11.5q-43 0 -75.5 10.5t-67.5 45.5l-139 131q-35 31 -35 61z" />
<glyph unicode="a" horiz-adv-x="1267" d="M109 512q16 104 69 196.5t131 163.5q78 70 175.5 110t199.5 40q76 0 140.5 -22.5t115.5 -63.5q14 37 47 61.5t74 24.5q47 0 73 -30q18 -22 18 -53q0 -12 -3 -26l-139 -800q-10 -47 -46 -79t-81 -32q-41 0 -65.5 25.5t-26.5 62.5q-66 -41 -138.5 -64.5t-148.5 -23.5 q-102 0 -184 41t-136 111q-52 72 -74 163q-11 46 -11 95t10 100zM324 512q-5 -28 -4 -54q0 -30 6 -60q12 -54 43 -95q61 -84 174 -84q53 0 105 21.5t95 62.5q96 84 119 209q6 30 6 58q0 30 -7 58q-13 54 -44 95q-29 39 -73 61.5t-99 22.5t-106.5 -22.5t-96.5 -61.5 q-45 -41 -76.5 -94.5t-41.5 -116.5z" />
<glyph unicode="b" horiz-adv-x="1351" d="M203 109l209 1212q8 47 46 80t85 33t75 -33q20 -24 20 -56q0 -12 -3 -24l-64 -381q68 39 141.5 61.5t151.5 22.5q104 0 188.5 -41t139.5 -111q56 -68 78 -162q12 -52 12 -108q0 -45 -8 -92q-18 -106 -73.5 -199.5t-135.5 -163t-178.5 -110.5t-202.5 -41 q-80 0 -146.5 23.5t-119.5 64.5q-16 -39 -49 -63.5t-74 -24.5q-47 0 -75 32q-20 24 -20 57q0 11 3 24zM498 510q-5 -28 -5 -54q0 -30 7 -60q12 -54 43 -93q31 -41 77 -63.5t105 -22.5q53 0 106.5 22.5t100.5 63.5q96 80 119 207q4 26 4 51q-1 31 -7 61q-12 54 -40 95 q-33 41 -79 63.5t-106 22.5q-53 0 -107.5 -22.5t-99.5 -63.5q-47 -41 -77.5 -94.5t-40.5 -112.5z" />
<glyph unicode="c" horiz-adv-x="1169" d="M170 522q20 109 79.5 204t144.5 166t188.5 111.5t214.5 40.5q94 0 173 -29.5t138 -82.5q29 -27 29 -69v-6q-2 -46 -37 -83q-35 -35 -81 -41q-8 -1 -15 -1q-36 0 -64 24q-35 31 -81 48t-101 17q-66 0 -127.5 -23.5t-110.5 -64.5t-83 -95t-44 -116q-4 -25 -4 -49 q1 -35 9 -67q14 -54 48.5 -96t87 -65.5t117.5 -23.5q111 0 207 68q33 24 69 24q8 1 16 -1q44 -6 67 -44q14 -23 14 -48q0 -16 -6 -34q-14 -45 -55 -73q-78 -53 -167.5 -83t-183.5 -30q-111 0 -200.5 41t-149.5 111q-58 70 -84 166q-15 56 -15 117q0 42 7 87z" />
<glyph unicode="d" horiz-adv-x="1351" d="M172 510q18 104 73.5 198.5t134.5 164t177 110.5t203 41q78 0 143.5 -23.5t118.5 -64.5l61 387q8 47 47 79t84 32q47 0 74 -32q21 -25 21 -58q0 -10 -2 -21l-209 -1212q-10 -47 -47 -80t-84 -33q-41 0 -67 25.5t-28 62.5q-66 -41 -140 -64.5t-152 -23.5q-104 0 -188.5 41 t-138.5 111q-55 68 -77 162q-12 52 -12 108q0 44 8 90zM395 510q-6 -29 -6 -56q1 -28 7 -56q12 -52 42 -93q33 -39 78 -61.5t102 -22.5t109.5 22.5t99.5 61.5q45 41 76 93.5t41 111.5q5 29 5 55q0 33 -7 61q-12 52 -41 91q-68 84 -180 84q-57 0 -110.5 -21.5t-98.5 -62.5 q-45 -39 -75.5 -91.5t-41.5 -115.5z" />
<glyph unicode="e" horiz-adv-x="1247" d="M170 512q18 104 73.5 197.5t135.5 163t178 110.5t203 41q100 0 181 -36t137 -98q54 -63 78 -150q15 -56 16 -119q0 -35 -5 -72q0 -8 -2 -10q0 -10 -4 -19q-10 -37 -45 -59.5t-76 -22.5h-653q0 -35 11.5 -71.5t33.5 -63.5q25 -37 76 -62.5t104 -29.5q11 -1 22 -1 q49 0 104 14q67 18 118 65q29 27 55.5 32t46 -1.5t31.5 -15.5t15 -11q24 -26 24 -59v-9q-4 -39 -33 -67q-92 -86 -188.5 -122t-233.5 -36q-104 0 -188 41t-138 111q-55 68 -75 162q-11 50 -10 103q0 46 8 95zM408 612h579q-2 31 -18.5 67t-48 67.5t-80.5 54t-115 28.5 q-66 -4 -119 -25.5t-93 -54t-66.5 -69.5t-38.5 -68z" />
<glyph unicode="f" horiz-adv-x="741" d="M143 948q10 47 48 80t85 33h54l6 29q10 57 26.5 105t47.5 95q29 45 75.5 79t94.5 46q33 10 63.5 14.5t61.5 4.5q47 0 75 -34q21 -26 21 -60q0 -10 -2 -21q-10 -47 -48 -80t-85 -33q-41 0 -54 -6q-10 -4 -14 -6q-2 -2 -14.5 -24.5t-22.5 -79.5l-4 -29h59q47 0 75 -33 q22 -26 22 -60q0 -10 -2 -20q-10 -47 -48 -80.5t-85 -33.5h-62l-127 -721q-8 -47 -47 -80t-86 -33t-74 33q-21 24 -21 56q0 11 3 24l127 721h-53q-47 0 -75 34q-22 26 -22 60q0 10 2 20z" />
<glyph unicode="g" horiz-adv-x="1351" d="M147 504q18 106 72.5 199.5t134.5 164.5q78 72 176.5 114t202.5 42q78 0 143.5 -23.5t118.5 -66.5q14 41 48 65.5t75 24.5q47 0 74 -32q19 -22 19 -53q0 -12 -3 -26l-71 -407v-2l-68 -381q-18 -102 -72.5 -192.5t-133.5 -158t-176 -106.5t-200 -39q-59 0 -111 13.5 t-97 35.5q-37 20 -45 64q-2 9 -2 19q0 33 22 65q29 41 74 56q19 7 37 7q24 0 45 -12q53 -29 116 -29q49 0 97.5 17.5t89.5 47.5t72.5 69.5t48.5 87.5q-66 -39 -137.5 -61.5t-145.5 -22.5q-104 0 -188 43t-138 112q-53 72 -75 166q-11 51 -11 106q0 45 8 93zM369 504 q-6 -30 -6 -58q0 -31 7 -58q13 -54 42 -95q67 -86 178 -86q113 0 205 86q47 39 78.5 93t41.5 118l3 2q4 27 4 52q0 34 -8 66q-13 54 -44 93q-31 41 -74.5 63.5t-99.5 22.5q-57 0 -109 -22.5t-100 -63.5q-45 -41 -76.5 -94.5t-41.5 -118.5z" />
<glyph unicode="h" horiz-adv-x="1255" d="M201 115l90 465l123 743q8 47 47 80t86 33t75 -33q21 -26 21 -60q0 -10 -2 -20l-55 -354q109 57 229 57q92 0 167 -35t125 -95q51 -60 71 -142q12 -46 11 -95q0 -38 -7 -79l-88 -465q-10 -47 -48 -80t-85 -33t-75 33q-22 26 -22 60q0 10 2 20l88 465q4 20 4 39 q0 24 -6 46q-10 40 -34.5 69.5t-61.5 47t-82 17.5t-88 -17.5t-78 -47t-59.5 -69.5t-32.5 -85l-88 -465q-10 -47 -48 -80t-85 -33t-75 33q-21 26 -21 60q0 9 2 20z" />
<glyph unicode="i" horiz-adv-x="575" d="M203 111l149 800q8 47 47 80t86 33t75 -33q21 -24 21 -56q0 -11 -3 -24l-148 -800q-8 -47 -47 -80t-86 -33t-75 33q-21 26 -21 60q0 9 2 20zM410 1276l6 43q10 47 48 80t85 33t75 -33q21 -26 21 -60q0 -10 -2 -20l-8 -43q-8 -47 -47 -81t-86 -34t-75 34q-20 24 -20 56 q0 12 3 25z" />
<glyph unicode="j" horiz-adv-x="509" d="M2 -289q8 47 48 81t87 34l197 1083q8 49 48 82t89 33q47 0 75 -33q21 -26 21 -61q0 -10 -2 -21l-196 -1083q-8 -47 -34 -89t-62.5 -74t-83 -50.5t-93.5 -18.5t-76 34q-21 25 -21 59q0 11 3 24zM397 1276l9 43q8 47 47 81t88 34q47 0 75 -34q23 -27 23 -61q0 -10 -2 -20 l-8 -43q-8 -49 -48 -84t-89 -35q-47 0 -75 35q-22 27 -22 63q0 10 2 21z" />
<glyph unicode="k" horiz-adv-x="1146" d="M203 113l213 1208q8 47 47 80t86 33t75 -33q20 -24 20 -56q0 -12 -3 -24l-125 -711l496 422q41 33 87 33t72 -33q23 -27 23 -62q0 -9 -2 -19q-8 -46 -47 -79l-361 -307l246 -381q15 -23 15 -50q-1 -15 -5 -32q-12 -47 -53 -75q-35 -27 -78 -27q-51 0 -80 41l-235 365 l-133 -115l-33 -178q-8 -47 -47 -80t-86 -33t-75 33q-20 24 -20 56q0 11 3 24z" />
<glyph unicode="l" horiz-adv-x="509" d="M215 113l213 1206q10 47 49 80t86 33t74 -33q20 -25 20 -57q0 -11 -2 -23l-213 -1206q-8 -47 -47 -81t-86 -34t-75 34q-21 26 -21 60q0 10 2 21z" />
<glyph unicode="m" horiz-adv-x="1947" d="M203 115l84 483l55 317q10 47 46 78t83 31q33 0 55.5 -16.5t32.5 -44.5q53 29 111.5 45t117.5 16q98 0 173 -38t122 -103q72 66 159 103.5t185 37.5q88 0 160 -34t119 -91q46 -57 66 -135q11 -45 12 -94q0 -35 -6 -72l-86 -483q-6 -47 -44 -79t-83 -32t-72 32 q-19 23 -19 53q0 12 3 26l84 483q3 20 3 38q0 64 -38 112q-49 62 -137 61q-43 0 -84 -16.5t-74 -44t-56.5 -65.5t-31.5 -81q0 -2 -2 -4l-84 -483q-10 -47 -46 -79t-83 -32q-45 0 -71 32q-20 25 -20 60q0 9 1 19l86 483v4q2 16 2 31q0 26 -6 50q-10 38 -34 65.5t-58.5 44 t-77.5 16.5t-83 -16.5t-74 -45t-57.5 -67.5t-31.5 -82l-86 -483q-8 -47 -45 -79t-82 -32t-71 32q-19 23 -20 54q0 12 3 25z" />
<glyph unicode="n" horiz-adv-x="1255" d="M201 113l86 483l55 319q10 45 47 77t82 32q70 0 86 -63q111 63 231 63q88 0 161 -34t121 -91t68 -136q11 -43 10 -90q0 -38 -7 -77l-86 -483q-6 -47 -43 -79t-82 -32q-46 0 -72 32q-19 24 -20 57q0 10 2 22l86 483q3 19 3 36q1 23 -5 46q-10 39 -34 67.5t-59.5 45 t-78.5 16.5t-85 -16.5t-75 -45t-56.5 -67.5t-29.5 -82l-88 -483q-6 -47 -44 -79t-83 -32t-71 32q-20 25 -21 58q0 10 2 21z" />
<glyph unicode="o" horiz-adv-x="1280" d="M168 510q18 104 71.5 196.5t131.5 163.5q78 70 175.5 112t201.5 42t186 -42t137 -112q53 -72 73 -164q11 -49 11 -101q0 -46 -8 -95q-18 -106 -72.5 -198.5t-132.5 -161.5q-78 -72 -174 -113t-201 -41q-104 0 -186 41t-137 113q-54 70 -74 162q-11 49 -10 101q0 47 8 97z M385 510q-5 -29 -4 -56q0 -32 6 -62q12 -54 43 -93q31 -41 76 -63.5t98 -22.5q55 0 107.5 22.5t99.5 63.5q43 39 75 93.5t44 117.5q4 27 4 53q0 33 -6 63q-12 54 -45 93q-61 86 -172 86t-207 -86q-43 -39 -75 -93.5t-44 -115.5z" />
<glyph unicode="p" horiz-adv-x="1351" d="M201 -276l211 1187q8 47 46 80t85 33q41 0 65.5 -24.5t26.5 -61.5q68 41 142.5 63.5t152.5 22.5q104 0 188 -41t139.5 -110.5t78.5 -164.5q12 -51 12 -105q0 -45 -9 -93q-18 -104 -73.5 -198.5t-135 -164t-178 -111.5t-202.5 -42q-156 4 -263 88l-61 -358 q-10 -47 -48 -80t-85 -33t-73 33q-21 24 -21 59q0 10 2 21zM565 510q-7 -31 -7 -59q0 -30 8 -57q14 -52 42 -89q33 -41 78 -63.5t102 -22.5q59 0 110.5 22.5t98.5 63.5q47 37 78 89t41 116q6 32 6 60q0 86 -51 147q-33 39 -78 61.5t-100 22.5q-57 0 -111.5 -22.5 t-101.5 -61.5q-43 -41 -74 -93.5t-41 -113.5z" />
<glyph unicode="q" horiz-adv-x="1351" d="M172 510q18 106 73.5 199.5t134.5 163t177 109.5t203 40q154 0 262 -86q16 39 50 62.5t75 23.5q45 0 73 -32q20 -23 20 -55q0 -11 -3 -24l-70 -399v-2l-139 -780q-8 -47 -46 -80t-85 -33q-45 0 -73 33q-20 24 -20 56q0 11 3 24l63 354q-137 -82 -290 -86 q-104 0 -188.5 41t-138.5 110.5t-77 162.5q-12 52 -12 108q0 44 8 90zM393 510q-4 -26 -4 -51q0 -31 7 -61q12 -52 42 -93q33 -39 78 -61.5t102 -22.5q55 0 108.5 22.5t98.5 61.5q96 84 119 205v2q5 27 5 52q0 31 -7 60q-12 54 -43 93q-31 41 -77 62.5t-103 21.5 q-111 0 -207 -84q-45 -39 -77 -92.5t-42 -114.5z" />
<glyph unicode="r" horiz-adv-x="899" d="M201 109l143 806q6 45 44 77t83 32q47 0 73 -32q19 -24 19 -56q0 -10 -2 -21l-4 -14q25 20 57 39q57 37 126 60.5t145 23.5q47 0 73 -32q19 -24 19 -56q0 -10 -2 -21q-10 -45 -46 -77.5t-81 -32.5q-37 0 -68.5 -10.5t-62.5 -26.5t-58.5 -43t-54.5 -55 q-45 -51 -75.5 -101.5t-41.5 -72.5l-67 -387q-8 -45 -46 -77t-83 -32t-71 32q-20 24 -21 56q0 10 2 21z" />
<glyph unicode="s" horiz-adv-x="1007" d="M118 215q4 43 38 78q35 37 82 41h11q40 0 66 -27q31 -33 87 -61q53 -26 108 -25h8q43 0 82 10.5t66 26.5q27 18 37 32.5t14 26.5q0 14 -2 23q-4 4 -8.5 10t-14.5 17q-23 14 -63.5 29.5t-93.5 25.5h-3q-47 10 -90 22.5t-80 30.5q-33 20 -64.5 49t-49.5 72q-17 44 -17 93 q0 17 2 34q14 70 59.5 127t100.5 96q59 37 127 57.5t137 20.5q53 0 96.5 -11.5t79 -28.5t62.5 -37.5t49 -37.5q36 -24 36 -70q0 -43 -32 -79q-29 -37 -75 -46q-13 -2 -24 -2q-31 0 -54 17q-43 33 -84 55.5t-90 22.5q-39 0 -73 -11.5t-56 -27.5q-23 -14 -31 -26.5t-10 -18.5 t-1 -9t1 -7q4 -10 20 -21q35 -31 137 -47l2 -2h2q51 -10 96.5 -23.5t84.5 -35.5q39 -20 71.5 -50t50.5 -73q19 -41 19 -91q0 -22 -4 -47q-14 -72 -61.5 -132t-106.5 -101q-61 -39 -134 -60.5t-147 -21.5q-117 2 -201 47t-135 94q-28 26 -28 63q1 5 1 9z" />
<glyph unicode="t" horiz-adv-x="819" d="M98 909q8 47 47 81t86 34h60l45 299q10 47 48 80t85 33t75 -33q21 -26 21 -60q0 -10 -2 -20l-45 -299h53q47 0 75 -34q21 -25 21 -57q0 -11 -3 -24q-8 -47 -47 -79.5t-87 -32.5h-53l-106 -568q47 1 75 -33q21 -26 21 -61q0 -10 -2 -20q-10 -47 -48 -80t-85 -33t-86 18.5 t-64.5 49t-35.5 71.5q-6 23 -6 48q0 19 3 40l109 568h-62q-46 1 -74 33q-20 24 -21 55q0 11 3 24z" />
<glyph unicode="u" horiz-adv-x="1255" d="M213 430l84 485q10 47 46 78t81 31q46 0 72 -30q19 -23 20 -57q0 -10 -2 -22l-86 -485q-4 -19 -3 -37q0 -23 5 -44q10 -38 33.5 -66.5t59.5 -45t79 -16.5t85 16.5t76 45t56.5 66.5t30.5 81l86 485q8 47 45 78t82 31q47 0 73 -30q18 -22 18 -53q0 -12 -3 -26l-84 -485 q-16 -88 -63.5 -166t-115 -136t-151.5 -92t-172 -34q-90 0 -161.5 34t-119.5 92t-68 136q-11 43 -10 89q0 37 7 77z" />
<glyph unicode="v" horiz-adv-x="1191" d="M123 862q-3 12 -3 24q0 29 16 58q24 41 69 60q22 8 43 8t40 -8q38 -16 48 -58l139 -561l334 561q25 42 69 58q22 8 43 8q20 0 40 -8q37 -18 47 -60q3 -11 3 -22q0 -30 -20 -60l-475 -799q-2 -4 -10 -16q-2 0 -2 -1t-2 -1q-4 -4 -5 -6t-5 -6q-2 0 -2.5 -1t-2.5 -1 q-6 -6 -14 -11q-2 -2 -4 -2q-12 -8 -18 -10h-2q-2 -2 -3 -2q-12 -4 -16 -4l-4 -2q-4 0 -9 -1t-9 -1h-2q-4 0 -9.5 1t-9.5 1l-4 2q-4 0 -16 4l-2 2q-6 2 -15 10q-2 0 -2 2q-4 2 -12 11l-2 2q-4 4 -8 12l-2 2q-4 12 -7 16z" />
<glyph unicode="w" horiz-adv-x="1763" d="M133 860q-3 12 -3 24q0 29 16 58q24 41 67 57q24 10 46 10q19 0 37 -8q38 -16 48 -57l137 -557l205 344q20 33 51 51q28 16 56 15h6q35 2 58.5 -15.5t31.5 -50.5l84 -344l334 557q25 41 69 57q20 8 39 8q21 0 41 -10q39 -16 48 -57q2 -11 2 -22q0 -30 -17 -60l-473 -790 q-8 -12 -12 -17v-4l-13 -12l-4 -4q-10 -4 -14 -8q-2 0 -2 -1t-2 -1q-4 -4 -9.5 -5.5t-9.5 -5.5q-2 0 -4 -2q-6 0 -14 -4h-6q-6 -2 -21 -2q-10 0 -16 2h-6q-8 4 -15 4l-2 2h-2q-4 4 -7 5t-7 6q-2 0 -2 1t-2 1q-2 6 -8 8l-4 4l-7 12q-2 2 -2 4q-2 4 -6 17l-86 350l-211 -350 q0 -10 -10 -17q0 -2 -2 -4l-12 -12l-4 -4q-4 -2 -7.5 -3t-7.5 -5q-2 -2 -4 -2q-4 -4 -8 -5.5t-8 -5.5h-2q-2 0 -2 -2q-8 0 -17 -4h-6q-6 -2 -18 -2t-19 2h-6q-8 4 -12 4q-2 2 -4 2h-2q-4 4 -7.5 5t-5.5 6q-2 0 -2 1t-2 1q-2 4 -10 8q0 2 -1 2t-1 2q-4 4 -8 12q0 2 -1 2t-1 2 q-2 4 -6 17z" />
<glyph unicode="x" horiz-adv-x="1167" d="M147 93.5q0 43.5 33 78.5l303 334l-184 332q-12 22 -12 46q0 17 6 35q14 44 55 70q32 21 65 21q9 0 18 -2q42 -8 65 -43l153 -277l254 277q31 37 76 44q9 1 18 1q33 0 58 -21q32 -26 32 -67q0 -46 -34 -84l-303 -332l184 -334q12 -21 12 -44q0 -17 -6 -35 q-14 -44 -55 -70q-33 -20 -68 -21q-23 0 -44 10.5t-36 32.5l-153 279l-250 -279q-43 -43 -96 -43q-16 0 -32 5t-28 16q-31 27 -31 70.5z" />
<glyph unicode="y" horiz-adv-x="1204" d="M128 -252q-1 9 -1 18q0 34 20 66q29 41 75 56q19 5 36 5q25 0 47 -12q51 -26 111 -26h4q90 0 170 51t121 135q-98 -49 -207 -49q-90 0 -162 33.5t-121 93t-69 137.5q-12 44 -12 91q0 38 7 77l86 491q10 47 47 78t82 31q47 0 74 -30q21 -24 21 -58q0 -10 -2 -21l-88 -491 q-4 -19 -4 -37q0 -23 6 -45q10 -39 33.5 -68.5t59.5 -46t81 -16.5t87 16.5t75.5 46t57 68.5t32.5 82l84 491q6 33 28 58q20 23 46 37t55 14q39 0 59 -20q35 -24 35 -68q0 -10 -2 -21l-29 -157l-110 -631q-18 -102 -72.5 -192.5t-133.5 -157t-175.5 -105.5t-198.5 -39 q-117 0 -209 52q-37 20 -44 63z" />
<glyph unicode="z" horiz-adv-x="1134" d="M125 88q0 4 1 6t1 4v8v3q2 4 2 6t2 6t2 5t2 5q0 2 4 10q2 4 3 5t3 6q0 6 7 6q4 8 8 10v2l573 633h-373q-46 1 -72 33q-19 25 -20 56q0 10 2 21q8 47 45 78t82 31h590h2q8 0 12 -2h11q2 -2 4 -2t4 -2q4 0 8 -4q4 0 8 -4q2 -2 4 -2t7 -2l6 -7q4 -4 6 -8q2 -2 3 -4t3 -4 q4 -4 4 -8q4 -8 4 -10q2 -2 2 -9q2 -4 2 -12q0 -2 1 -4t1 -6t-1 -6t-1 -6v-7v-2q-4 -8 -4 -12q-2 -2 -2 -8q-4 -8 -6 -10q-4 -8 -6 -11q-2 -4 -3 -5t-3 -5q-2 -2 -3 -4t-3 -4l-3 -2l-573 -633h373q46 -1 72 -33q19 -25 20 -57q0 -10 -2 -21q-8 -45 -45 -76.5t-82 -31.5h-590 q-14 0 -20 2q-4 0 -7 2q-4 0 -12 4q-2 2 -4 2q-4 2 -5 3t-5 3l-4 4h-2l-6 7q-4 4 -7 8q-2 2 -3 4t-3 4q-4 4 -4 8q-4 4 -4 8q-2 2 -2 4t-2 7v8q0 4 -1 6t-1 6z" />
<glyph unicode="{" horiz-adv-x="983" d="M123 561q8 41 40 67.5t81 30.5q106 4 159.5 56.5t73.5 167.5q2 12 5 32.5t6.5 42t5.5 41t4 31.5q12 74 41.5 135.5t83 110.5t138.5 86t208 63q51 10 78.5 -14.5t19.5 -69.5q-6 -37 -28.5 -57t-43.5 -27q-78 -23 -127 -47t-78.5 -55t-45 -71t-23.5 -91q-4 -31 -10 -75 t-13 -76q-23 -121 -88 -184.5t-174 -96.5q49 -16 84 -39.5t56.5 -57.5t27.5 -79t-4 -104q-6 -33 -16.5 -77t-14.5 -75q-10 -53 -9 -92t19.5 -69.5t58.5 -55.5t112 -47q16 -6 32.5 -26.5t10.5 -57.5q-8 -45 -45 -69.5t-82 -14.5q-115 27 -186.5 63.5t-108.5 86t-44.5 110.5 t7.5 137q2 12 5 31.5t8 41t9 42t6 33.5q20 113 -14.5 165t-138.5 56q-47 4 -70.5 30.5t-15.5 67.5z" />
<glyph unicode="|" horiz-adv-x="585" d="M258 -174l305 1720q8 41 43 70t76 29t64.5 -29t15.5 -70l-307 -1720q-8 -41 -44 -69.5t-77 -28.5q-39 0 -61.5 28.5t-14.5 69.5z" />
<glyph unicode="}" horiz-adv-x="983" d="M119 -219q6 37 28.5 57.5t42.5 26.5q78 23 127.5 47.5t79 55t44 69.5t24.5 92q4 31 10 75t12 77q23 121 88.5 184t174.5 96q-49 16 -84 40t-56.5 57.5t-28 78.5t4.5 105q6 33 16 77t14 74q8 51 8.5 91t-18 71t-59.5 55.5t-111 46.5q-16 6 -32.5 27t-10.5 57q8 45 45 69.5 t82 14.5q115 -27 186.5 -63.5t108.5 -85.5t44 -110.5t-7 -137.5q-2 -12 -5 -31.5t-8 -41t-9.5 -42t-6.5 -32.5q-20 -113 14.5 -165t139.5 -57q47 -4 70.5 -30.5t15.5 -67.5t-40 -67.5t-81 -30.5q-106 -4 -159.5 -56.5t-73.5 -166.5l-5.5 -33t-6.5 -42.5t-5 -41t-4 -31.5 q-12 -74 -42 -135t-83 -110.5t-138 -86t-208 -63.5q-51 -10 -78.5 14.5t-19.5 69.5z" />
<glyph unicode="~" horiz-adv-x="942" d="M174 535q0 8 2 21t6 24q33 90 79 138t130 48q43 0 84 -12.5t78 -27.5t70.5 -27.5t60.5 -12.5q37 0 57.5 14.5t38.5 49.5q10 16 26.5 29.5t39.5 13.5q31 0 53.5 -21.5t22.5 -48.5q0 -10 -2 -23.5t-7 -23.5q-33 -90 -79 -138.5t-129 -48.5q-43 0 -84 12.5t-78 28t-71 28.5 t-60 13q-37 0 -58 -15t-39 -50q-10 -16 -26.5 -28.5t-38.5 -12.5q-31 0 -53.5 20.5t-22.5 49.5z" />
<glyph unicode="&#xa1;" horiz-adv-x="516" d="M203 117l133 757q10 47 49 81t86 34t74.5 -33.5t17.5 -81.5l-133 -757q-8 -47 -47 -81t-86 -34t-75.5 34t-18.5 81zM408 1278l8 45q8 47 47 80t86 33t74.5 -33t19.5 -80l-8 -45q-8 -47 -47 -80t-86 -33t-75 33t-19 80z" />
<glyph unicode="&#xa2;" horiz-adv-x="1189" d="M150.5 -83q-11.5 44 15.5 87l84 141q-61 72 -89 167.5t-7 205.5q18 109 77.5 204t144.5 165.5t189.5 112.5t212.5 42h8l93 156q27 43 72.5 60.5t86.5 -1.5q39 -16 48.5 -60t-15.5 -85l-74 -121q55 -29 93 -63q31 -29 27.5 -74t-32.5 -80q-41 -39 -86 -44t-75 24 q-10 10 -22.5 17t-24.5 15l-330 -555q37 -12 86 -12q55 0 108.5 18.5t98.5 47.5q41 29 85 22.5t70 -45.5q18 -35 4 -79t-55 -74q-76 -49 -166 -80t-184 -31q-90 0 -170 29l-66 -111q-20 -33 -52 -50.5t-64 -17.5q-10 0 -20.5 2.5t-18.5 6.5q-41 16 -52.5 60zM375 518 q-14 -74 12 -143l256 430q-49 -14 -94 -43t-81 -67t-60.5 -83t-32.5 -94z" />
<glyph unicode="&#xa3;" horiz-adv-x="1318" d="M143 88q4 31 25.5 55.5t58.5 34.5l109 31l63 360h-65q-45 0 -70.5 31t-15.5 76q6 43 43 74.5t82 31.5h65l33 189q20 113 69.5 204t121.5 152q145 127 366 127q141 0 228 -47t141 -119q14 -16 21 -38.5t3 -51.5q-10 -53 -52 -88t-95 -35q-35 0 -54.5 12.5t-29.5 26.5 q-39 51 -84 79t-117 28q-49 0 -87 -14.5t-73 -43.5q-80 -70 -104 -198l-31 -183h414q43 0 68.5 -31.5t19.5 -74.5q-10 -45 -47 -76t-80 -31h-414l-61 -350h565q47 0 74 -31.5t18 -78.5q-10 -47 -47 -78t-84 -31h-897q-43 0 -64.5 25.5t-15.5 62.5z" />
<glyph unicode="&#xa5;" horiz-adv-x="1404" d="M117 303q6 39 37.5 65.5t68.5 26.5h316l26 150h-315q-37 0 -59.5 26.5t-14.5 63.5q6 39 37 65.5t68 26.5h243l-284 516q-23 39 -17 86q10 47 52 83t96 36q41 0 65.5 -18.5t40.5 -51.5l264 -534l455 532q25 29 56.5 50.5t72.5 21.5q49 0 79 -32t19 -85q-8 -49 -45 -88 l-473 -516h248q37 0 59.5 -26.5t16.5 -65.5q-8 -37 -39 -63.5t-68 -26.5h-315l-27 -150h316q37 0 58.5 -26.5t14.5 -65.5q-6 -37 -37.5 -63.5t-68.5 -26.5h-315l-17 -98q-10 -51 -51 -86t-92 -35t-80 34.5t-19 86.5l17 98h-316q-37 0 -58 26.5t-15 63.5z" />
<glyph unicode="&#xa8;" d="M270 1333l2 15q10 55 57.5 91t104.5 36q55 0 86 -36t21 -91l-2 -15q-12 -55 -58.5 -90t-101.5 -35q-57 0 -89 35t-20 90zM678 1333l2 15q10 55 57.5 91t104.5 36q55 0 85.5 -36t20.5 -91l-2 -15q-12 -55 -58 -90t-102 -35q-57 0 -88.5 35t-19.5 90z" />
<glyph unicode="&#xa9;" horiz-adv-x="1699" d="M109 713v4q0 152 57 286t157.5 235t236.5 160.5t292 59.5t291 -58.5t234.5 -158.5t156.5 -234.5t57 -285.5v-4q0 -152 -57 -286t-157.5 -235.5t-236.5 -161t-292 -59.5t-291 58.5t-234.5 159t-156.5 234.5t-57 286zM186 713q0 -137 50.5 -258t139.5 -211t210 -142.5 t262 -52.5t263 53.5t211 143.5t140 212t51 259v4q0 137 -50 258t-139 211t-210 142t-262 52t-263 -53t-211 -143t-140.5 -212t-51.5 -259v-4zM465 723v4q0 82 29.5 154.5t82 128t126 87t159.5 31.5q94 0 155.5 -23.5t110.5 -64.5q14 -10 23.5 -25.5t9.5 -35.5 q0 -33 -21.5 -54.5t-52.5 -21.5q-23 0 -49 21q-35 29 -79 47t-97 18t-97 -20.5t-76 -56t-50 -83t-18 -100.5v-4q0 -53 18 -100t50 -83t76 -56.5t97 -20.5q59 0 103.5 19.5t85.5 54.5q8 6 18 12t27 6q29 0 50 -21.5t21 -50.5q0 -33 -22 -51q-57 -49 -123 -78.5t-164 -29.5 q-84 0 -156.5 30.5t-125 85t-82 126t-29.5 155.5z" />
<glyph unicode="&#xab;" horiz-adv-x="1054" d="M119 503.5q-4 16.5 0 37.5q6 37 41 71l317 334q23 23 48.5 36t54.5 13q41 0 64.5 -30.5t14.5 -71.5q-4 -20 -14 -37.5t-24 -32.5l-267 -280l168 -287q20 -29 15 -68q-8 -43 -43 -72.5t-78 -29.5q-29 0 -49.5 12.5t-30.5 30.5l-203 340q-10 18 -14 34.5zM633 541 q6 35 43 71l317 334q20 23 46 36t55 13q43 0 66.5 -30.5t15.5 -71.5q-6 -39 -41 -70l-265 -280l166 -287q23 -31 17 -68q-10 -43 -44 -72.5t-77 -29.5q-29 0 -49.5 12.5t-30.5 30.5l-203 340q-10 18 -15 34.5t-1 37.5z" />
<glyph unicode="&#xad;" horiz-adv-x="835" d="M135 705q0 31 21.5 52t52.5 21h381q31 0 51.5 -21.5t20.5 -51.5q0 -31 -20.5 -52.5t-51.5 -21.5h-381q-31 0 -52.5 21.5t-21.5 52.5z" />
<glyph unicode="&#xae;" horiz-adv-x="851" d="M70 1094v2q0 74 27.5 138t75.5 113.5t113.5 78t139.5 28.5q76 0 140.5 -28.5t112.5 -77t75.5 -113t27.5 -137.5v-2q0 -74 -27.5 -138.5t-75.5 -113.5t-113.5 -78t-139.5 -29q-76 0 -140.5 29t-112.5 77t-75.5 112.5t-27.5 138.5zM111 1094q0 -66 23.5 -123.5t66.5 -100.5 t100 -68.5t125 -25.5t125 25.5t99 68.5t66.5 101.5t24.5 124.5v2q0 66 -23.5 123t-66.5 100t-100 68.5t-125 25.5t-125 -25.5t-99 -68.5t-66.5 -101.5t-24.5 -123.5v-2zM299 911v355q0 33 33 32h108q53 0 90 -37.5t37 -91.5q0 -57 -47 -98q6 -4 12.5 -9t10.5 -13 q18 -29 18 -64q0 -14 1 -23.5t1 -13.5q16 -4 23 -20q4 -12 -2 -24.5t-21 -16.5q-2 0 -5 -1t-7 -1q-12 0 -25 6q-10 6 -18 20q-12 27 -12 74q-4 18 -9 25q-6 8 -18 18q-10 6 -19.5 9t-13.5 5h-69v-131q0 -14 -10.5 -23t-24.5 -9q-33 0 -33 32zM367 1108h73q25 0 43.5 18.5 t18.5 42.5q0 27 -18.5 44.5t-43.5 17.5h-73v-123z" />
<glyph unicode="&#xb0;" horiz-adv-x="921" d="M152 1112v4q0 68 27.5 127.5t75.5 104.5t109.5 71.5t129.5 26.5t129 -26.5t108 -71.5t75 -104.5t28 -127.5v-4q0 -68 -28 -127t-75 -105t-108 -73t-129 -27t-129.5 27t-109.5 73t-75.5 105t-27.5 127zM299 1112q0 -39 14.5 -75t41 -62.5t61.5 -43t78 -16.5 q41 0 76.5 16.5t61 43t40 62.5t14.5 75v4q0 39 -14.5 75t-40 62.5t-61 42t-76.5 15.5q-43 0 -78 -15.5t-61.5 -42t-41 -62.5t-14.5 -75v-4z" />
<glyph unicode="&#xb4;" d="M412 1251q0 10 5 22.5t11 22.5l117 181q37 59 98 59q25 0 50.5 -7t47 -18.5t36 -26t14.5 -28.5q0 -31 -35 -61l-138 -131q-37 -35 -69.5 -45.5t-75.5 -10.5q-27 0 -44 11.5t-17 31.5z" />
<glyph unicode="&#xb8;" d="M348 -238q0 25 17 48l145 210h186l-125 -288q-12 -29 -29.5 -44.5t-49.5 -15.5q-18 0 -43 8.5t-47.5 20.5t-38 28.5t-15.5 32.5z" />
<glyph unicode="&#xbb;" horiz-adv-x="1054" d="M147 188q6 39 41 70l265 281l-166 286q-23 31 -17 68q10 43 44 72.5t77 29.5q29 0 49.5 -12t30.5 -31l203 -340q10 -18 15 -34.5t1 -36.5q-6 -35 -43 -72l-317 -334q-20 -23 -46 -36t-55 -13q-43 0 -66.5 30.5t-15.5 71.5zM664 188q4 20 14 38t24 32l267 281l-168 286 q-20 29 -15 68q8 43 43 72.5t78 29.5q29 0 49.5 -12t30.5 -31l203 -340q10 -18 14 -34.5t0 -36.5q-6 -37 -41 -72l-317 -334q-23 -23 -48.5 -36t-54.5 -13q-41 0 -64.5 30.5t-14.5 71.5z" />
<glyph unicode="&#xbf;" horiz-adv-x="1093" d="M152 451q14 80 53 152.5t95 131t127 98t148 58.5l27 141q8 45 44 75t79 30t68.5 -30t17.5 -75l-39 -225q0 -2 -1 -2t-1 -2v-4q-8 -43 -44 -74t-79 -31q-51 0 -98 -19.5t-86 -52t-66.5 -76.5t-36.5 -95q-8 -49 3.5 -93.5t39 -77t68.5 -52t90 -19.5q68 0 129.5 32.5 t102.5 88.5q29 37 71.5 48t77.5 -11q35 -23 39 -64t-25 -80q-78 -102 -192.5 -163.5t-239.5 -61.5q-94 0 -169.5 36t-127 97.5t-72 143t-3.5 176.5zM645 1286l6 39q8 45 44 76t81 31q43 0 68.5 -31t17.5 -76l-6 -39q-8 -45 -44 -75.5t-81 -30.5q-43 0 -68.5 30.5t-17.5 75.5 z" />
<glyph unicode="&#xc0;" horiz-adv-x="1617" d="M134 65.5q-11 43.5 13 88.5l666 1206q18 35 52 54.5t69 19.5t61.5 -19.5t34.5 -54.5l240 -1206q10 -45 -17.5 -88t-74.5 -60q-23 -6 -41 -6q-35 0 -60.5 19.5t-32.5 54.5l-53 264h-499l-148 -264q-18 -35 -51 -54.5t-68 -19.5q-20 0 -39 6q-41 16 -52 59.5zM616 563h330 l-88 441zM811 1866q0 14 13.5 28.5t35 25.5t48 18.5t50.5 7.5q61 0 99 -60l117 -180q6 -10 12 -22.5t6 -22.5q0 -20 -17.5 -31.5t-46.5 -11.5q-43 0 -75.5 10t-67.5 45l-139 131q-35 31 -35 62z" />
<glyph unicode="&#xc1;" horiz-adv-x="1323" d="M132 65.5q-11 43.5 13 88.5l666 1206q18 35 52 54.5t69 19.5t61.5 -19.5t34.5 -54.5l240 -1206q10 -45 -17.5 -88t-74.5 -60q-23 -6 -41 -6q-35 0 -60.5 19.5t-32.5 54.5l-53 264h-500l-147 -264q-18 -35 -51 -54.5t-68 -19.5q-20 0 -39 6q-41 16 -52 59.5zM614 563h330 l-88 441zM735 1661q0 10 5 22.5t12 22.5l116 180q37 59 99 60q25 0 50 -7.5t46.5 -18.5t36 -25.5t14.5 -28.5q0 -31 -35 -62l-137 -131q-37 -35 -69.5 -45t-75.5 -10q-27 0 -44.5 11t-17.5 32z" />
<glyph unicode="&#xc2;" horiz-adv-x="1617" d="M134 65.5q-11 43.5 13 88.5l666 1206q18 35 52 54.5t69 19.5t61.5 -19.5t34.5 -54.5l240 -1206q10 -45 -17.5 -88t-74.5 -60q-23 -6 -41 -6q-35 0 -60.5 19.5t-32.5 54.5l-53 264h-499l-148 -264q-18 -35 -51 -54.5t-68 -19.5q-20 0 -39 6q-41 16 -52 59.5zM616 563h330 l-88 441zM698 1659q4 10 15.5 23.5t23.5 25.5l187 170q31 29 62.5 44t74.5 15h74q43 0 64.5 -15t35.5 -44l84 -170q6 -12 10 -25.5t0 -23.5q-6 -20 -26.5 -30.5t-45.5 -10.5q-43 0 -72.5 10t-62.5 45l-78 92l-135 -92q-49 -35 -87 -45t-81 -10q-23 0 -36 10t-7 31z" />
<glyph unicode="&#xc3;" horiz-adv-x="1617" d="M134 65.5q-11 43.5 13 88.5l666 1206q18 35 52 54.5t69 19.5t61.5 -19.5t34.5 -54.5l240 -1206q10 -45 -17.5 -88t-74.5 -60q-23 -6 -41 -6q-35 0 -60.5 19.5t-32.5 54.5l-53 264h-499l-148 -264q-18 -35 -51 -54.5t-68 -19.5q-20 0 -39 6q-41 16 -52 59.5zM616 563h330 l-88 441zM674 1671q0 10 2 23.5t6 23.5q33 90 80 138.5t129 48.5q43 0 84 -13.5t79 -29t70.5 -27.5t61.5 -12q35 0 55.5 15t38.5 50q10 16 27.5 28.5t40.5 12.5q31 0 53 -20.5t22 -46.5q0 -10 -2 -23.5t-6 -23.5q-33 -90 -80 -138.5t-129 -48.5q-43 0 -84 12.5t-78.5 27.5 t-71.5 28.5t-61 13.5q-35 0 -55.5 -15t-38.5 -50q-10 -16 -26.5 -28.5t-40.5 -12.5q-31 0 -53.5 20.5t-22.5 46.5z" />
<glyph unicode="&#xc4;" horiz-adv-x="1617" d="M134 65.5q-11 43.5 13 88.5l666 1206q18 35 52 54.5t69 19.5t61.5 -19.5t34.5 -54.5l240 -1206q10 -45 -17.5 -88t-74.5 -60q-23 -6 -41 -6q-35 0 -60.5 19.5t-32.5 54.5l-53 264h-499l-148 -264q-18 -35 -51 -54.5t-68 -19.5q-20 0 -39 6q-41 16 -52 59.5zM616 563h330 l-88 441zM672 1743l2 14q10 55 57.5 91t104.5 36q55 0 85.5 -36t20.5 -91l-2 -14q-12 -55 -58 -90t-102 -35q-57 0 -89 35t-19 90zM1079 1743l2 14q10 55 57.5 91t104.5 36q55 0 86 -36t21 -91l-2 -14q-12 -55 -58.5 -90t-101.5 -35q-57 0 -89 35t-20 90z" />
<glyph unicode="&#xc5;" horiz-adv-x="1617" d="M175 65.5q-11 43.5 11 88.5l623 1132q-49 35 -74.5 91.5t-15.5 121.5l2 4q8 51 39 97.5t72.5 80t93 54t102.5 20.5t95 -20.5t74 -54t43 -80t5 -97.5l-2 -4q-10 -66 -55 -121t-107 -90l228 -1134q8 -45 -19.5 -88t-75.5 -60q-16 -6 -40 -6q-35 0 -60 18.5t-31 53.5 l-55 266h-498l-145 -266q-20 -35 -53 -53.5t-68 -18.5q-18 0 -37 6q-41 16 -52 59.5zM653 563h332l-88 441zM883 1499q-6 -41 17.5 -68.5t64.5 -27.5t74.5 27.5t39.5 68.5l2 4q6 41 -17.5 68.5t-64.5 27.5t-74.5 -27.5t-39.5 -68.5z" />
<glyph unicode="&#xc6;" horiz-adv-x="2140" d="M82 117q4 18 12 37.5t21 33.5l899 1182q29 41 68.5 64.5t93.5 23.5h985q47 0 74.5 -32.5t17.5 -79.5q-8 -47 -46 -80t-85 -33h-664l-65 -373h571q47 0 73.5 -33.5t18.5 -81.5q-8 -47 -47 -78.5t-86 -31.5h-571l-68 -385h674q47 0 74.5 -33t17.5 -80q-8 -47 -46 -79.5 t-85 -32.5h-799q-53 0 -83.5 36.5t-20.5 90.5l39 219h-541l-217 -289q-53 -70 -123 -70q-47 0 -73.5 30t-18.5 75zM682 594h412l112 645h-41z" />
<glyph unicode="&#xc7;" horiz-adv-x="1511" d="M219 717q27 150 108 279.5t197.5 227t260 154t294.5 56.5q129 0 238.5 -41t189.5 -115q33 -29 30 -76t-38 -84t-82 -42t-80 24q-57 49 -132 77.5t-167 28.5q-104 0 -203.5 -39t-179.5 -104q-82 -68 -137 -156t-72 -190q-18 -102 5.5 -190.5t80.5 -155.5 q57 -66 142.5 -105t191.5 -39q92 0 177 28t159 79q41 29 87 22.5t69 -43.5t8.5 -83t-57.5 -74q-106 -74 -229.5 -115t-252.5 -41q-152 0 -275.5 56.5t-206.5 152.5t-117.5 227t-8.5 281zM600 -238q0 25 16 48l146 210h186l-125 -288q-12 -29 -29.5 -44.5t-50.5 -15.5 q-18 0 -42.5 8.5t-47 20.5t-38 28.5t-15.5 32.5z" />
<glyph unicode="&#xc8;" horiz-adv-x="1372" d="M223 109l213 1208q8 47 47 80t86 33h2h2h664q47 0 74.5 -33t19.5 -80q-10 -47 -48 -81t-85 -34h-555l-68 -377h480q47 0 74.5 -32.5t17.5 -79.5q-8 -47 -47 -80t-86 -33h-477l-68 -377h555q47 0 74.5 -33.5t19.5 -80.5q-10 -47 -48 -80t-85 -33h-666h-2q-47 0 -74.5 32.5 t-19.5 80.5zM696 1866q0 14 13.5 28.5t35 25.5t48 18.5t51.5 7.5q61 0 98 -60l117 -180q6 -10 12 -22.5t6 -22.5q0 -20 -17 -31.5t-46 -11.5q-43 0 -76 10t-68 45l-139 131q-35 31 -35 62z" />
<glyph unicode="&#xc9;" horiz-adv-x="1372" d="M223 109l213 1208q8 47 47 80t86 33h2h2h664q47 0 74.5 -33t19.5 -80q-10 -47 -48 -81t-85 -34h-555l-68 -377h480q47 0 74.5 -32.5t17.5 -79.5q-8 -47 -47 -80t-86 -33h-477l-68 -377h555q47 0 74.5 -33.5t19.5 -80.5q-10 -47 -48 -80t-85 -33h-666h-2q-47 0 -74.5 32.5 t-19.5 80.5zM778 1661q0 10 5 22.5t12 22.5l116 180q37 59 99 60q25 0 50 -7.5t46.5 -18.5t36 -25.5t14.5 -28.5q0 -31 -35 -62l-137 -131q-37 -35 -69.5 -45t-75.5 -10q-27 0 -44.5 11t-17.5 32z" />
<glyph unicode="&#xca;" horiz-adv-x="1372" d="M223 109l213 1208q8 47 47 80t86 33h2h2h664q47 0 74.5 -33t19.5 -80q-10 -47 -48 -81t-85 -34h-555l-68 -377h480q47 0 74.5 -32.5t17.5 -79.5q-8 -47 -47 -80t-86 -33h-477l-68 -377h555q47 0 74.5 -33.5t19.5 -80.5q-10 -47 -48 -80t-85 -33h-666h-2q-47 0 -74.5 32.5 t-19.5 80.5zM688 1659q4 10 15.5 23.5t23.5 25.5l186 170q31 29 63 44t75 15h73q43 0 64.5 -15t36.5 -44l84 -170q6 -12 10 -25.5t0 -23.5q-6 -20 -26.5 -30.5t-45.5 -10.5q-43 0 -72.5 10t-62.5 45l-78 92l-135 -92q-49 -35 -87 -45t-81 -10q-23 0 -36 10t-7 31z" />
<glyph unicode="&#xcb;" horiz-adv-x="1372" d="M223 109l213 1208q8 47 47 80t86 33h2h2h664q47 0 74.5 -33t19.5 -80q-10 -47 -48 -81t-85 -34h-555l-68 -377h480q47 0 74.5 -32.5t17.5 -79.5q-8 -47 -47 -80t-86 -33h-477l-68 -377h555q47 0 74.5 -33.5t19.5 -80.5q-10 -47 -48 -80t-85 -33h-666h-2q-47 0 -74.5 32.5 t-19.5 80.5zM635 1743l2 14q10 55 57.5 91t104.5 36q55 0 85.5 -36t20.5 -91l-2 -14q-12 -55 -58 -90t-102 -35q-57 0 -88.5 35t-19.5 90zM1042 1743l2 14q10 55 57.5 91t104.5 36q55 0 86 -36t21 -91l-2 -14q-12 -55 -58.5 -90t-101.5 -35q-57 0 -89 35t-20 90z" />
<glyph unicode="&#xcc;" horiz-adv-x="561" d="M41 111l213 1208q10 47 48 80t85 33t74.5 -33t19.5 -80l-213 -1208q-8 -47 -47 -80t-86 -33t-74.5 32.5t-19.5 80.5zM240 1866q0 14 13 28.5t34.5 25.5t48 18.5t51.5 7.5q61 0 98 -60l117 -180q6 -10 12.5 -22.5t6.5 -22.5q0 -20 -17.5 -31.5t-46.5 -11.5q-43 0 -75.5 10 t-67.5 45l-140 131q-35 31 -34 62z" />
<glyph unicode="&#xcd;" horiz-adv-x="561" d="M238 111l213 1208q10 47 48 80t85 33t74.5 -33t19.5 -80l-213 -1208q-8 -47 -47 -80t-86 -33t-75 32.5t-19 80.5zM385 1661q0 10 5 22.5t11 22.5l117 180q37 59 98 60q25 0 50.5 -7.5t47 -18.5t36 -25.5t14.5 -28.5q0 -31 -35 -62l-137 -131q-37 -35 -70 -45t-76 -10 q-27 0 -44 11t-17 32z" />
<glyph unicode="&#xce;" horiz-adv-x="561" d="M76 111l213 1208q10 47 48 80t85 33t74.5 -33t19.5 -80l-213 -1208q-8 -47 -47 -80t-86 -33t-74.5 32.5t-19.5 80.5zM106 1659q4 10 15.5 23.5t23.5 25.5l187 170q31 29 62.5 44t74.5 15h74q43 0 64.5 -15t35.5 -44l84 -170q6 -12 10 -25.5t0 -23.5q-6 -20 -26.5 -30.5 t-44.5 -10.5q-43 0 -73 10t-63 45l-77 92l-136 -92q-49 -35 -86.5 -45t-80.5 -10q-23 0 -36.5 10t-7.5 31z" />
<glyph unicode="&#xcf;" horiz-adv-x="561" d="M92 111l213 1208q10 47 48 80t85 33t75 -33t19 -80l-213 -1208q-8 -47 -47 -80t-86 -33t-74.5 32.5t-19.5 80.5zM166 1743l2 14q10 55 57.5 91t104.5 36q55 0 85.5 -36t20.5 -91l-2 -14q-12 -55 -58 -90t-102 -35q-57 0 -88.5 35t-19.5 90zM573 1743l2 14q10 55 57.5 91 t104.5 36q55 0 86 -36t21 -91l-2 -14q-12 -55 -58.5 -90t-101.5 -35q-57 0 -89 35t-20 90z" />
<glyph unicode="&#xd0;" horiz-adv-x="1662" d="M123 723q6 31 32.5 52.5t57.5 21.5h78l92 524q10 47 49 80t86 33h242q147 0 268 -56.5t201 -154t113.5 -227.5t7.5 -279q-27 -147 -106 -278.5t-193.5 -228.5t-256 -153.5t-288.5 -56.5h-240h-2q-47 0 -74.5 34t-17.5 81l94 534h-88q-31 0 -47 21.5t-8 52.5zM418 227h129 q100 0 196.5 39t175 104.5t132 155t71.5 191.5t-5 191t-77.5 155.5t-137.5 105.5t-183 39h-129l-72 -411h76q31 0 46 -21.5t9 -52.5q-8 -31 -33.5 -52.5t-56.5 -21.5h-67z" />
<glyph unicode="&#xd1;" horiz-adv-x="1617" d="M225 113l211 1202q4 29 20.5 54.5t45.5 41.5q41 29 86 21.5t65 -46.5l504 -925l150 854q10 47 48 79.5t85 32.5t74.5 -32.5t19.5 -79.5l-213 -1202q-8 -47 -47 -80t-86 -33q-51 0 -78 39q-2 4 -4 7t-4 7l-500 918l-151 -858q-8 -47 -47 -80t-87 -33q-47 0 -74.5 33 t-17.5 80zM780 1671q0 10 2 23.5t6 23.5q33 90 80 138.5t129 48.5q43 0 84 -13.5t79 -29t71 -27.5t61 -12q35 0 55.5 15t38.5 50q10 16 28 28.5t40 12.5q31 0 53.5 -20.5t22.5 -46.5q0 -10 -2 -23.5t-6 -23.5q-33 -90 -80 -138.5t-129 -48.5q-43 0 -84 12.5t-79 27.5 t-72 28.5t-60 13.5q-35 0 -55.5 -15t-38.5 -50q-10 -16 -26.5 -28.5t-41.5 -12.5q-31 0 -53.5 20.5t-22.5 46.5z" />
<glyph unicode="&#xd2;" horiz-adv-x="1740" d="M184 715q27 147 101.5 276t185.5 228q111 98 245 155.5t277 57.5q141 0 256 -57.5t191 -155.5q74 -98 103.5 -227.5t2.5 -276.5q-25 -147 -99.5 -276.5t-184.5 -227.5q-111 -98 -245.5 -155.5t-277.5 -57.5t-257.5 57.5t-188.5 155.5q-76 98 -105.5 227t-3.5 277z M412 715q-18 -104 2 -193.5t71 -156.5q51 -66 126 -103t169 -39q92 2 180.5 39t163.5 103q74 68 126.5 156.5t70.5 193.5q18 104 -2.5 193t-71.5 155t-127 103.5t-168 37.5t-181 -37.5t-163 -103.5t-126 -155t-70 -193zM1112 1866q0 14 13.5 28.5t35 25.5t48 18.5t51.5 7.5 q61 0 98 -60l117 -180q6 -10 12 -22.5t6 -22.5q0 -20 -17 -31.5t-46 -11.5q-43 0 -76 10t-68 45l-139 131q-35 31 -35 62z" />
<glyph unicode="&#xd3;" horiz-adv-x="1740" d="M184 715q27 147 101.5 276t185.5 228q111 98 245 155.5t277 57.5q141 0 256 -57.5t191 -155.5q74 -98 103.5 -227.5t2.5 -276.5q-25 -147 -99.5 -276.5t-184.5 -227.5q-111 -98 -245.5 -155.5t-277.5 -57.5t-257.5 57.5t-188.5 155.5q-76 98 -105.5 227t-3.5 277z M412 715q-18 -104 2 -193.5t71 -156.5q51 -66 126 -103t169 -39q92 2 180.5 39t163.5 103q74 68 126.5 156.5t70.5 193.5q18 104 -2.5 193t-71.5 155t-127 103.5t-168 37.5t-181 -37.5t-163 -103.5t-126 -155t-70 -193zM772 1661q0 10 5 22.5t11 22.5l117 180q37 59 99 60 q25 0 50 -7.5t46.5 -18.5t36 -25.5t14.5 -28.5q0 -31 -35 -62l-137 -131q-37 -35 -69.5 -45t-75.5 -10q-27 0 -44.5 11t-17.5 32z" />
<glyph unicode="&#xd4;" horiz-adv-x="1740" d="M184 715q27 147 101.5 276t185.5 228q111 98 245 155.5t277 57.5q141 0 256 -57.5t191 -155.5q74 -98 103.5 -227.5t2.5 -276.5q-25 -147 -99.5 -276.5t-184.5 -227.5q-111 -98 -245.5 -155.5t-277.5 -57.5t-257.5 57.5t-188.5 155.5q-76 98 -105.5 227t-3.5 277z M412 715q-18 -104 2 -193.5t71 -156.5q51 -66 126 -103t169 -39q92 2 180.5 39t163.5 103q74 68 126.5 156.5t70.5 193.5q18 104 -2.5 193t-71.5 155t-127 103.5t-168 37.5t-181 -37.5t-163 -103.5t-126 -155t-70 -193zM850 1659q4 10 15.5 23.5t23.5 25.5l186 170 q31 29 62.5 44t74.5 15h74q43 0 64.5 -15t35.5 -44l84 -170q6 -12 10.5 -25.5t0.5 -23.5q-6 -20 -26.5 -30.5t-45.5 -10.5q-43 0 -72.5 10t-62.5 45l-78 92l-135 -92q-49 -35 -87 -45t-81 -10q-23 0 -36 10t-7 31z" />
<glyph unicode="&#xd5;" horiz-adv-x="1740" d="M184 715q27 147 101.5 276t185.5 228q111 98 245 155.5t277 57.5q141 0 256 -57.5t191 -155.5q74 -98 103.5 -227.5t2.5 -276.5q-25 -147 -99.5 -276.5t-184.5 -227.5q-111 -98 -245.5 -155.5t-277.5 -57.5t-257.5 57.5t-188.5 155.5q-76 98 -105.5 227t-3.5 277z M412 715q-18 -104 2 -193.5t71 -156.5q51 -66 126 -103t169 -39q92 2 180.5 39t163.5 103q74 68 126.5 156.5t70.5 193.5q18 104 -2.5 193t-71.5 155t-127 103.5t-168 37.5t-181 -37.5t-163 -103.5t-126 -155t-70 -193zM756 1671q0 10 2 23.5t6 23.5q33 90 80 138.5 t129 48.5q43 0 84 -13.5t79 -29t70.5 -27.5t61.5 -12q35 0 55 15t39 50q10 16 27.5 28.5t40.5 12.5q31 0 53 -20.5t22 -46.5q0 -10 -2 -23.5t-6 -23.5q-33 -90 -80 -138.5t-129 -48.5q-43 0 -84 12.5t-79 27.5t-71.5 28.5t-60.5 13.5q-35 0 -55.5 -15t-38.5 -50 q-10 -16 -26.5 -28.5t-41.5 -12.5q-31 0 -53 20.5t-22 46.5z" />
<glyph unicode="&#xd6;" horiz-adv-x="1740" d="M184 715q27 147 101.5 276t185.5 228q111 98 245 155.5t277 57.5q141 0 256 -57.5t191 -155.5q74 -98 103.5 -227.5t2.5 -276.5q-25 -147 -99.5 -276.5t-184.5 -227.5q-111 -98 -245.5 -155.5t-277.5 -57.5t-257.5 57.5t-188.5 155.5q-76 98 -105.5 227t-3.5 277z M412 715q-18 -104 2 -193.5t71 -156.5q51 -66 126 -103t169 -39q92 2 180.5 39t163.5 103q74 68 126.5 156.5t70.5 193.5q18 104 -2.5 193t-71.5 155t-127 103.5t-168 37.5t-181 -37.5t-163 -103.5t-126 -155t-70 -193zM823 1743l2 14q10 55 57.5 91t104.5 36q55 0 86 -36 t21 -91l-2 -14q-12 -55 -58.5 -90t-101.5 -35q-57 0 -89 35t-20 90zM1231 1743l2 14q10 55 57.5 91t104.5 36q55 0 85.5 -36t20.5 -91l-2 -14q-12 -55 -58 -90t-102 -35q-57 0 -88.5 35t-19.5 90z" />
<glyph unicode="&#xd7;" horiz-adv-x="1269" d="M213 375q4 25 16.5 45t30.5 37l301 262l-235 262q-10 16 -17.5 35.5t-3.5 46.5q6 47 42 79t83 32t76 -35l227 -269l299 269q39 35 84 35q47 0 74 -31t20 -78q-6 -45 -47 -80l-301 -262l234 -262q12 -16 19 -35.5t3 -46.5q-6 -47 -42 -79t-83 -32q-27 0 -45 9.5t-33 23.5 l-225 270l-299 -268q-39 -35 -86 -35q-45 0 -71.5 31t-20.5 76z" />
<glyph unicode="&#xd9;" horiz-adv-x="1556" d="M248 592l127 729q10 47 49 80t86 33t74.5 -33t17.5 -80l-129 -729q-12 -76 4.5 -142.5t57 -115.5t102 -78t137.5 -29t147.5 29t130 78t99.5 115.5t53 142.5l129 729q8 47 47 80t86 33t75 -33t20 -80l-129 -729q-23 -123 -87.5 -230.5t-159.5 -187.5t-211 -127t-239 -47 t-222 47t-165.5 127t-94.5 187.5t-5 230.5zM805 1866q0 14 13 28.5t34.5 25.5t48.5 18.5t51 7.5q61 0 99 -60l116 -180q6 -10 12.5 -22.5t6.5 -22.5q0 -20 -17.5 -31.5t-46.5 -11.5q-43 0 -75.5 10t-67.5 45l-139 131q-35 31 -35 62z" />
<glyph unicode="&#xda;" horiz-adv-x="1556" d="M248 592l127 729q10 47 49 80t86 33t74.5 -33t17.5 -80l-129 -729q-12 -76 4.5 -142.5t57 -115.5t102 -78t137.5 -29t147.5 29t130 78t99.5 115.5t53 142.5l129 729q8 47 47 80t86 33t75 -33t20 -80l-129 -729q-23 -123 -87.5 -230.5t-159.5 -187.5t-211 -127t-239 -47 t-222 47t-165.5 127t-94.5 187.5t-5 230.5zM897 1661q0 10 5 22.5t11 22.5l117 180q37 59 98 60q25 0 50.5 -7.5t47 -18.5t36 -25.5t14.5 -28.5q0 -31 -35 -62l-137 -131q-37 -35 -70 -45t-76 -10q-27 0 -44 11t-17 32z" />
<glyph unicode="&#xdb;" horiz-adv-x="1556" d="M248 592l127 729q10 47 49 80t86 33t74.5 -33t17.5 -80l-129 -729q-12 -76 4.5 -142.5t57 -115.5t102 -78t137.5 -29t147.5 29t130 78t99.5 115.5t53 142.5l129 729q8 47 47 80t86 33t75 -33t20 -80l-129 -729q-23 -123 -87.5 -230.5t-159.5 -187.5t-211 -127t-239 -47 t-222 47t-165.5 127t-94.5 187.5t-5 230.5zM795 1659q4 10 15 23.5t24 25.5l186 170q31 29 62.5 44t74.5 15h74q43 0 64.5 -15t35.5 -44l84 -170q6 -12 10.5 -25.5t-0.5 -23.5q-6 -20 -26.5 -30.5t-44.5 -10.5q-43 0 -73 10t-62 45l-78 92l-135 -92q-49 -35 -87 -45t-81 -10 q-23 0 -36.5 10t-6.5 31z" />
<glyph unicode="&#xdc;" horiz-adv-x="1556" d="M248 592l127 729q10 47 49 80t86 33t74.5 -33t17.5 -80l-129 -729q-12 -76 4.5 -142.5t57 -115.5t102 -78t137.5 -29t147.5 29t130 78t99.5 115.5t53 142.5l129 729q8 47 47 80t86 33t75 -33t20 -80l-129 -729q-23 -123 -87.5 -230.5t-159.5 -187.5t-211 -127t-239 -47 t-222 47t-165.5 127t-94.5 187.5t-5 230.5zM727 1743l2 14q10 55 57.5 91t104.5 36q55 0 86 -36t20 -91l-2 -14q-12 -55 -58 -90t-101 -35q-57 0 -89 35t-20 90zM1135 1743l2 14q10 55 57 91t104 36q55 0 86 -36t21 -91l-2 -14q-12 -55 -58.5 -90t-101.5 -35q-57 0 -89 35 t-19 90z" />
<glyph unicode="&#xdd;" horiz-adv-x="1466" d="M133 1335q17 45 57 74q43 29 88.5 21.5t67.5 -46.5l268 -483l439 483q35 39 82 46.5t79 -21.5q35 -29 34 -74t-36 -84l-526 -579l-98 -561q-8 -47 -47 -80t-86 -33t-75 32.5t-20 80.5l101 561l-322 579q-23 39 -6 84zM705 1661q0 10 5 22.5t11 22.5l117 180q37 59 98 60 q25 0 50.5 -7.5t47 -18.5t35.5 -25.5t14 -28.5q0 -31 -34 -62l-138 -131q-37 -35 -69.5 -45t-75.5 -10q-27 0 -44 11t-17 32z" />
<glyph unicode="&#xdf;" horiz-adv-x="1269" d="M203 78l162 917q18 111 68 200t124 151.5t170 96.5t209 34q104 0 181 -30t125 -82t65.5 -123t3.5 -150v-5q-12 -70 -41 -124t-68 -96t-85 -73.5t-95 -56.5q55 -20 106.5 -51t86 -75t51 -103t2.5 -135v-4q-18 -100 -70.5 -176t-126.5 -126.5t-162 -77t-174 -28.5 q-53 0 -77.5 28.5t-16.5 73.5q6 37 35 63t69 36q113 16 187 67.5t90 145.5v4q16 88 -41 139t-156 78q-35 10 -58.5 35.5t-12.5 73.5q6 37 25.5 61.5t45.5 40.5q88 45 152.5 106.5t81.5 151.5v4q16 90 -31 143.5t-141 53.5q-102 0 -178 -71t-97 -191l-163 -926 q-10 -51 -51.5 -86t-94.5 -35q-51 0 -80.5 35t-19.5 86z" />
<glyph unicode="&#xe0;" horiz-adv-x="1175" d="M156 512q16 104 69.5 196.5t130.5 163.5q78 70 175.5 110t199.5 40q76 0 140.5 -22.5t115.5 -63.5q14 37 47 61.5t74 24.5q47 0 72.5 -30.5t15.5 -78.5l-139 -800q-10 -47 -46 -79t-81 -32q-41 0 -65.5 25.5t-26.5 62.5q-66 -41 -138.5 -64.5t-148.5 -23.5 q-102 0 -184 41t-136 111q-53 72 -74.5 163t-0.5 195zM371 512q-10 -61 2 -114.5t43 -94.5q61 -84 174 -84q53 0 105.5 21.5t95.5 62.5q96 84 118 209q12 63 -1 116.5t-44 94.5q-29 39 -72.5 61.5t-99.5 22.5q-55 0 -106.5 -22.5t-96.5 -61.5q-45 -41 -76.5 -94.5 t-41.5 -116.5zM698 1456q0 14 13.5 28.5t35 26t48 18.5t51.5 7q61 0 98 -59l117 -181q6 -10 12 -22t6 -23q0 -20 -17 -31.5t-46 -11.5q-43 0 -76 10.5t-68 45.5l-139 131q-35 31 -35 61z" />
<glyph unicode="&#xe1;" horiz-adv-x="1175" d="M156 512q16 104 69.5 196.5t130.5 163.5q78 70 175.5 110t199.5 40q76 0 140.5 -22.5t115.5 -63.5q14 37 47 61.5t74 24.5q47 0 72.5 -30.5t15.5 -78.5l-139 -800q-10 -47 -46 -79t-81 -32q-41 0 -65.5 25.5t-26.5 62.5q-66 -41 -138.5 -64.5t-148.5 -23.5 q-102 0 -184 41t-136 111q-53 72 -74.5 163t-0.5 195zM371 512q-10 -61 2 -114.5t43 -94.5q61 -84 174 -84q53 0 105.5 21.5t95.5 62.5q96 84 118 209q12 63 -1 116.5t-44 94.5q-29 39 -72.5 61.5t-99.5 22.5q-55 0 -106.5 -22.5t-96.5 -61.5q-45 -41 -76.5 -94.5 t-41.5 -116.5zM713 1251q0 10 5 22.5t11 22.5l117 181q37 59 98 59q25 0 50.5 -7t47 -18.5t36 -26t14.5 -28.5q0 -31 -35 -61l-137 -131q-37 -35 -70 -45.5t-76 -10.5q-27 0 -44 11.5t-17 31.5z" />
<glyph unicode="&#xe2;" horiz-adv-x="1175" d="M156 512q16 104 69.5 196.5t130.5 163.5q78 70 175.5 110t199.5 40q76 0 140.5 -22.5t115.5 -63.5q14 37 47 61.5t74 24.5q47 0 72.5 -30.5t15.5 -78.5l-139 -800q-10 -47 -46 -79t-81 -32q-41 0 -65.5 25.5t-26.5 62.5q-66 -41 -138.5 -64.5t-148.5 -23.5 q-102 0 -184 41t-136 111q-53 72 -74.5 163t-0.5 195zM371 512q-10 -61 2 -114.5t43 -94.5q61 -84 174 -84q53 0 105.5 21.5t95.5 62.5q96 84 118 209q12 63 -1 116.5t-44 94.5q-29 39 -72.5 61.5t-99.5 22.5q-55 0 -106.5 -22.5t-96.5 -61.5q-45 -41 -76.5 -94.5 t-41.5 -116.5zM670 1249q4 10 15 23.5t24 25.5l186 170q31 29 62.5 44.5t74.5 15.5h74q43 0 64.5 -15.5t35.5 -44.5l84 -170q6 -12 10.5 -25t-0.5 -24q-6 -20 -26.5 -30.5t-44.5 -10.5q-43 0 -73 10.5t-62 45.5l-78 92l-135 -92q-49 -35 -87 -45.5t-81 -10.5q-23 0 -36 10.5 t-7 30.5z" />
<glyph unicode="&#xe3;" horiz-adv-x="1175" d="M156 512q16 104 69.5 196.5t130.5 163.5q78 70 175.5 110t199.5 40q76 0 140.5 -22.5t115.5 -63.5q14 37 47 61.5t74 24.5q47 0 72.5 -30.5t15.5 -78.5l-139 -800q-10 -47 -46 -79t-81 -32q-41 0 -65.5 25.5t-26.5 62.5q-66 -41 -138.5 -64.5t-148.5 -23.5 q-102 0 -184 41t-136 111q-53 72 -74.5 163t-0.5 195zM371 512q-10 -61 2 -114.5t43 -94.5q61 -84 174 -84q53 0 105.5 21.5t95.5 62.5q96 84 118 209q12 63 -1 116.5t-44 94.5q-29 39 -72.5 61.5t-99.5 22.5q-55 0 -106.5 -22.5t-96.5 -61.5q-45 -41 -76.5 -94.5 t-41.5 -116.5zM594 1262q0 10 2 23t6 24q33 90 80 138t129 48q43 0 84 -13.5t79 -28.5t70.5 -27.5t61.5 -12.5q35 0 55.5 15.5t38.5 50.5q10 16 27.5 28.5t40.5 12.5q31 0 53 -20.5t22 -47.5q0 -10 -2 -23.5t-6 -23.5q-33 -90 -80 -138t-129 -48q-43 0 -84 12t-78.5 27.5 t-71.5 28.5t-61 13q-35 0 -55.5 -15t-38.5 -50q-10 -16 -26.5 -28.5t-40.5 -12.5q-31 0 -53.5 20.5t-22.5 47.5z" />
<glyph unicode="&#xe4;" horiz-adv-x="1175" d="M156 512q16 104 69.5 196.5t130.5 163.5q78 70 175.5 110t199.5 40q76 0 140.5 -22.5t115.5 -63.5q14 37 47 61.5t74 24.5q47 0 72.5 -30.5t15.5 -78.5l-139 -800q-10 -47 -46 -79t-81 -32q-41 0 -65.5 25.5t-26.5 62.5q-66 -41 -138.5 -64.5t-148.5 -23.5 q-102 0 -184 41t-136 111q-53 72 -74.5 163t-0.5 195zM371 512q-10 -61 2 -114.5t43 -94.5q61 -84 174 -84q53 0 105.5 21.5t95.5 62.5q96 84 118 209q12 63 -1 116.5t-44 94.5q-29 39 -72.5 61.5t-99.5 22.5q-55 0 -106.5 -22.5t-96.5 -61.5q-45 -41 -76.5 -94.5 t-41.5 -116.5zM698 1333l2 15q10 55 57.5 91t104.5 36q55 0 86 -36t21 -91l-2 -15q-12 -55 -58.5 -90t-101.5 -35q-57 0 -89 35t-20 90zM1106 1333l2 15q10 55 57.5 91t104.5 36q55 0 85.5 -36t20.5 -91l-2 -15q-12 -55 -58 -90t-102 -35q-57 0 -88.5 35t-19.5 90z" />
<glyph unicode="&#xe5;" horiz-adv-x="1175" d="M131 512q16 104 69.5 196.5t131.5 163.5q78 70 175 110t200 40q76 0 140 -22.5t116 -63.5q14 37 46.5 61.5t73.5 24.5q47 0 73 -30.5t15 -78.5l-139 -800q-10 -47 -46 -79t-81 -32q-41 0 -65.5 25.5t-26.5 62.5q-66 -41 -138.5 -64.5t-148.5 -23.5q-102 0 -184 41 t-135 111q-53 72 -74.5 163t-1.5 195zM346 512q-10 -61 2 -114.5t43 -94.5q61 -84 174 -84q53 0 105.5 21.5t95.5 62.5q96 84 119 209q12 63 -1.5 116.5t-43.5 94.5q-29 39 -73 61.5t-99 22.5t-106.5 -22.5t-96.5 -61.5q-45 -41 -77 -94.5t-42 -116.5zM606 1419v4 q8 51 39 97.5t73 80t93 54t102 20.5t95.5 -20.5t74 -54t43 -79.5t4.5 -98v-4q-10 -51 -39.5 -96t-71.5 -80t-93.5 -55.5t-102.5 -20.5t-95 20.5t-73.5 55.5t-44 80t-4.5 96zM770 1419q-8 -41 15.5 -68.5t64.5 -27.5t74.5 27.5t42.5 68.5v4q8 41 -16.5 69t-65.5 28t-74 -28 t-41 -69v-4z" />
<glyph unicode="&#xe6;" horiz-adv-x="1953" d="M131 524q18 109 72.5 203t134.5 166t179 113t204 41q78 0 143.5 -24t118.5 -65q14 39 49 64t76 25q47 0 73.5 -32t16.5 -79l-2 -12q76 55 164 87.5t184 32.5q102 0 185 -35.5t138.5 -100t80 -153.5t12.5 -194q0 -8 -2 -12q0 -10 -4 -19q-12 -37 -47 -60.5t-78 -23.5h-666 q0 -35 11.5 -72.5t33.5 -64.5q27 -37 79 -63.5t106 -30.5q59 -4 127.5 14.5t121.5 65.5q29 29 55.5 34t47 -1t33 -16.5t14.5 -12.5q27 -29 23.5 -69t-31.5 -68q-47 -45 -94.5 -76t-98.5 -50.5t-109 -27.5t-128 -8q-92 0 -168 30.5t-131 86.5v-2q-10 -47 -47 -80t-84 -33 q-41 0 -67 25.5t-28 64.5q-66 -41 -140.5 -65.5t-151.5 -24.5q-104 0 -189.5 42t-138.5 114t-75.5 166t-2.5 200zM352 524q-10 -63 2.5 -117.5t42.5 -95.5q63 -86 178 -86t207 86q47 41 79 95.5t42 117.5q12 66 -1 120t-44 95t-76 63.5t-100 22.5q-57 0 -109.5 -22.5 t-99.5 -63.5q-45 -41 -78 -95t-43 -120zM1184 625h592q-2 31 -18.5 67.5t-49.5 68.5t-83 55.5t-118 29.5q-68 -4 -122 -26.5t-95 -55.5t-67.5 -70t-38.5 -69z" />
<glyph unicode="&#xe7;" horiz-adv-x="1169" d="M170 522q20 109 79.5 204t144.5 166t188.5 111.5t214.5 40.5q94 0 173 -29.5t138 -82.5q31 -29 29 -75t-37 -83q-35 -35 -81 -41t-79 23q-35 31 -81 48t-101 17q-66 0 -127.5 -23.5t-110.5 -64.5t-83 -95t-44 -116q-10 -61 4.5 -115.5t49 -96.5t87 -65.5t117.5 -23.5 q111 0 207 68q41 29 85 22.5t67 -43.5t8.5 -82t-55.5 -73q-78 -53 -167.5 -83t-183.5 -30q-111 0 -200.5 41t-149 111.5t-85 166t-7.5 203.5zM399 -238q0 25 17 48l145 210h187l-125 -288q-12 -29 -30 -44.5t-50 -15.5q-18 0 -43 8.5t-47.5 20.5t-38 28.5t-15.5 32.5z" />
<glyph unicode="&#xe8;" horiz-adv-x="1196" d="M176 512q18 104 73.5 197.5t135.5 163t178.5 110.5t202.5 41q100 0 181 -36t136.5 -98.5t79 -149.5t11.5 -191q0 -8 -3 -10q0 -10 -4 -19q-10 -37 -45 -59.5t-75 -22.5h-654q0 -35 11.5 -71.5t33.5 -63.5q25 -37 76 -62.5t104 -29.5q59 -4 126 13.5t118 64.5 q29 27 55.5 32t46 -1.5t32 -15.5t14.5 -11q27 -29 23.5 -68t-32.5 -67q-92 -86 -188 -122t-233 -36q-104 0 -188.5 41t-138.5 110.5t-74.5 163t-2.5 197.5zM414 612h579q-2 31 -18.5 67t-48 67.5t-80.5 54t-115 28.5q-66 -4 -119 -25.5t-93 -54t-66.5 -69.5t-38.5 -68z M741 1456q0 14 13.5 28.5t35 26t48 18.5t51.5 7q61 0 98 -59l117 -181q6 -10 12 -22t6 -23q0 -20 -17 -31.5t-46 -11.5q-43 0 -76 10.5t-68 45.5l-139 131q-35 31 -35 61z" />
<glyph unicode="&#xe9;" horiz-adv-x="1196" d="M176 512q18 104 73.5 197.5t135.5 163t178.5 110.5t202.5 41q100 0 181 -36t136.5 -98.5t79 -149.5t11.5 -191q0 -8 -3 -10q0 -10 -4 -19q-10 -37 -45 -59.5t-75 -22.5h-654q0 -35 11.5 -71.5t33.5 -63.5q25 -37 76 -62.5t104 -29.5q59 -4 126 13.5t118 64.5 q29 27 55.5 32t46 -1.5t32 -15.5t14.5 -11q27 -29 23.5 -68t-32.5 -67q-92 -86 -188 -122t-233 -36q-104 0 -188.5 41t-138.5 110.5t-74.5 163t-2.5 197.5zM414 612h579q-2 31 -18.5 67t-48 67.5t-80.5 54t-115 28.5q-66 -4 -119 -25.5t-93 -54t-66.5 -69.5t-38.5 -68z M659 1251q0 10 5.5 22.5t11.5 22.5l117 181q37 59 98 59q25 0 50.5 -7t47 -18.5t35.5 -26t14 -28.5q0 -31 -34 -61l-138 -131q-37 -35 -69.5 -45.5t-75.5 -10.5q-27 0 -44.5 11.5t-17.5 31.5z" />
<glyph unicode="&#xea;" horiz-adv-x="1196" d="M176 512q18 104 73.5 197.5t135.5 163t178.5 110.5t202.5 41q100 0 181 -36t136.5 -98.5t79 -149.5t11.5 -191q0 -8 -3 -10q0 -10 -4 -19q-10 -37 -45 -59.5t-75 -22.5h-654q0 -35 11.5 -71.5t33.5 -63.5q25 -37 76 -62.5t104 -29.5q59 -4 126 13.5t118 64.5 q29 27 55.5 32t46 -1.5t32 -15.5t14.5 -11q27 -29 23.5 -68t-32.5 -67q-92 -86 -188 -122t-233 -36q-104 0 -188.5 41t-138.5 110.5t-74.5 163t-2.5 197.5zM414 612h579q-2 31 -18.5 67t-48 67.5t-80.5 54t-115 28.5q-66 -4 -119 -25.5t-93 -54t-66.5 -69.5t-38.5 -68z M571 1249q4 10 15.5 23.5t23.5 25.5l187 170q31 29 62.5 44.5t74.5 15.5h74q43 0 64.5 -15.5t35.5 -44.5l84 -170q6 -12 10 -25t0 -24q-6 -20 -26.5 -30.5t-45.5 -10.5q-43 0 -72.5 10.5t-62.5 45.5l-77 92l-136 -92q-49 -35 -87 -45.5t-81 -10.5q-23 0 -36 10.5t-7 30.5z " />
<glyph unicode="&#xeb;" horiz-adv-x="1196" d="M176 512q18 104 73.5 197.5t135.5 163t178.5 110.5t202.5 41q100 0 181 -36t136.5 -98.5t79 -149.5t11.5 -191q0 -8 -3 -10q0 -10 -4 -19q-10 -37 -45 -59.5t-75 -22.5h-654q0 -35 11.5 -71.5t33.5 -63.5q25 -37 76 -62.5t104 -29.5q59 -4 126 13.5t118 64.5 q29 27 55.5 32t46 -1.5t32 -15.5t14.5 -11q27 -29 23.5 -68t-32.5 -67q-92 -86 -188 -122t-233 -36q-104 0 -188.5 41t-138.5 110.5t-74.5 163t-2.5 197.5zM414 612h579q-2 31 -18.5 67t-48 67.5t-80.5 54t-115 28.5q-66 -4 -119 -25.5t-93 -54t-66.5 -69.5t-38.5 -68z M586 1333l2 15q10 55 57.5 91t104.5 36q55 0 85.5 -36t20.5 -91l-2 -15q-12 -55 -58 -90t-102 -35q-57 0 -89 35t-19 90zM993 1333l2 15q10 55 57.5 91t104.5 36q55 0 86 -36t21 -91l-2 -15q-12 -55 -58.5 -90t-101.5 -35q-57 0 -89 35t-20 90z" />
<glyph unicode="&#xec;" horiz-adv-x="509" d="M14 111l150 839q8 47 47 80t86 33t74.5 -33t17.5 -80l-147 -839q-8 -47 -47 -80t-86 -33t-75 33t-20 80zM96 1456q0 14 13.5 28.5t35 26t48 18.5t51.5 7q61 0 98 -59l117 -181q6 -10 12 -22t6 -23q0 -20 -17 -31.5t-46 -11.5q-43 0 -76 10.5t-68 45.5l-139 131 q-35 31 -35 61z" />
<glyph unicode="&#xed;" horiz-adv-x="509" d="M215 111l150 839q8 47 47 80t86 33t74.5 -33t17.5 -80l-148 -839q-8 -47 -47 -80t-86 -33t-74.5 33t-19.5 80zM371 1251q0 10 5 22.5t11 22.5l117 181q37 59 98 59q25 0 50.5 -7t47 -18.5t36 -26t14.5 -28.5q0 -31 -35 -61l-137 -131q-37 -35 -70 -45.5t-76 -10.5 q-27 0 -44 11.5t-17 31.5z" />
<glyph unicode="&#xee;" horiz-adv-x="509" d="M41 111l149 839q8 47 47 80t87 33q47 0 74.5 -33t17.5 -80l-148 -839q-8 -47 -47 -80t-86 -33t-74.5 33t-19.5 80zM88 1249q4 10 15.5 23.5t23.5 25.5l186 170q31 29 63 44.5t75 15.5h73q43 0 64.5 -15.5t36.5 -44.5l84 -170q6 -12 10 -25t0 -24q-6 -20 -26.5 -30.5 t-45.5 -10.5q-43 0 -72.5 10.5t-62.5 45.5l-78 92l-135 -92q-49 -35 -87 -45.5t-81 -10.5q-23 0 -36 10.5t-7 30.5z" />
<glyph unicode="&#xef;" horiz-adv-x="509" d="M25 111l149 839q8 47 47 80t86 33t75 -33t17 -80l-147 -839q-8 -47 -47 -80t-86 -33t-74.5 33t-19.5 80zM68 1333l2 15q10 55 57 91t104 36q55 0 86 -36t21 -91l-2 -15q-12 -55 -58.5 -90t-101.5 -35q-57 0 -89 35t-19 90zM475 1333l2 15q10 55 57.5 91t104.5 36 q55 0 86 -36t20 -91l-2 -15q-12 -55 -58 -90t-101 -35q-57 0 -89 35t-20 90z" />
<glyph unicode="&#xf0;" horiz-adv-x="1286" d="M166 510q16 109 67.5 198t125 153.5t165.5 99t193 34.5q88 0 149.5 -21.5t120.5 -62.5l-166 293l-239 -98q-16 -6 -35 -6q-33 0 -52.5 22.5t-13.5 55.5q4 29 21.5 46t44.5 27l198 82q-14 27 -10 66q8 47 46 79.5t85 32.5q35 0 55.5 -15t34.5 -40l17 -33l190 78 q10 4 19.5 6t17.5 2q33 0 51.5 -23.5t14.5 -55.5q-4 -29 -22.5 -46.5t-43.5 -27.5l-158 -64l144 -262q37 -68 60.5 -128t35.5 -120.5t13 -122t-9 -129.5q-16 -113 -70.5 -213t-139.5 -175.5t-197.5 -121t-245.5 -45.5q-119 0 -213 42t-156.5 115t-89.5 170t-8 208zM408 504 q-10 -63 4 -120.5t50 -101.5t90 -70t124 -26q72 0 133 26t109.5 69t79 101t40.5 124q10 63 -4 119.5t-50 97.5t-91 65.5t-127 24.5t-132.5 -23.5t-107.5 -65.5t-77.5 -98.5t-40.5 -121.5z" />
<glyph unicode="&#xf1;" horiz-adv-x="1255" d="M201 113l86 483l55 319q10 45 47 77t82 32q70 0 86 -63q111 63 231 63q88 0 161 -34t121 -91t67.5 -136t3.5 -167l-86 -483q-6 -47 -43 -79t-82 -32q-47 0 -72.5 32t-17.5 79l86 483q8 43 -2.5 82t-34 67.5t-59 45t-78.5 16.5t-85 -16.5t-75 -45t-56.5 -67.5t-29.5 -82 l-88 -483q-6 -47 -44 -79t-83 -32t-71.5 32t-18.5 79zM467 1262q0 10 2 23t6 24q33 90 80 138t129 48q43 0 84 -13.5t79 -28.5t70.5 -27.5t61.5 -12.5q35 0 55.5 15.5t38.5 50.5q10 16 27.5 28.5t40.5 12.5q31 0 53.5 -20.5t22.5 -47.5q0 -10 -2.5 -23.5t-6.5 -23.5 q-33 -90 -80 -138t-129 -48q-43 0 -84 12t-78.5 27.5t-71.5 28.5t-60 13q-35 0 -56 -15t-39 -50q-10 -16 -26.5 -28.5t-40.5 -12.5q-31 0 -53.5 20.5t-22.5 47.5z" />
<glyph unicode="&#xf2;" horiz-adv-x="1310" d="M143 510q18 104 71.5 196.5t131.5 163.5q78 70 175.5 112t201.5 42t186 -42t138 -112q53 -72 73.5 -164t1.5 -196q-18 -106 -72.5 -198.5t-131.5 -161.5q-78 -72 -174.5 -113t-200.5 -41t-186.5 41t-137.5 113q-53 70 -73.5 161.5t-2.5 198.5zM360 510 q-10 -63 2.5 -117.5t43.5 -93.5q31 -41 75.5 -63.5t98.5 -22.5q55 0 107 22.5t99 63.5q43 39 75 93.5t44 117.5q10 61 -2 115.5t-45 93.5q-61 86 -172 86t-207 -86q-43 -39 -74.5 -93.5t-44.5 -115.5zM659 1456q0 14 13.5 28.5t35 26t48 18.5t51.5 7q61 0 98 -59l117 -181 q6 -10 12 -22t6 -23q0 -20 -17 -31.5t-46 -11.5q-43 0 -76 10.5t-67 45.5l-140 131q-35 31 -35 61z" />
<glyph unicode="&#xf3;" horiz-adv-x="1310" d="M143 510q18 104 71.5 196.5t131.5 163.5q78 70 175.5 112t201.5 42t186 -42t138 -112q53 -72 73.5 -164t1.5 -196q-18 -106 -72.5 -198.5t-131.5 -161.5q-78 -72 -174.5 -113t-200.5 -41t-186.5 41t-137.5 113q-53 70 -73.5 161.5t-2.5 198.5zM360 510 q-10 -63 2.5 -117.5t43.5 -93.5q31 -41 75.5 -63.5t98.5 -22.5q55 0 107 22.5t99 63.5q43 39 75 93.5t44 117.5q10 61 -2 115.5t-45 93.5q-61 86 -172 86t-207 -86q-43 -39 -74.5 -93.5t-44.5 -115.5zM496 1251q0 10 5 22.5t11 22.5l117 181q37 59 98 59q25 0 50.5 -7 t47 -18.5t35.5 -26t14 -28.5q0 -31 -34 -61l-138 -131q-37 -35 -69.5 -45.5t-75.5 -10.5q-27 0 -44 11.5t-17 31.5z" />
<glyph unicode="&#xf4;" horiz-adv-x="1310" d="M143 510q18 104 71.5 196.5t131.5 163.5q78 70 175.5 112t201.5 42t186 -42t138 -112q53 -72 73.5 -164t1.5 -196q-18 -106 -72.5 -198.5t-131.5 -161.5q-78 -72 -174.5 -113t-200.5 -41t-186.5 41t-137.5 113q-53 70 -73.5 161.5t-2.5 198.5zM360 510 q-10 -63 2.5 -117.5t43.5 -93.5q31 -41 75.5 -63.5t98.5 -22.5q55 0 107 22.5t99 63.5q43 39 75 93.5t44 117.5q10 61 -2 115.5t-45 93.5q-61 86 -172 86t-207 -86q-43 -39 -74.5 -93.5t-44.5 -115.5zM559 1249q4 10 15.5 23.5t23.5 25.5l186 170q31 29 63 44.5t75 15.5h73 q43 0 64.5 -15.5t36.5 -44.5l84 -170q6 -12 10 -25t0 -24q-6 -20 -26.5 -30.5t-45.5 -10.5q-43 0 -72.5 10.5t-62.5 45.5l-78 92l-135 -92q-49 -35 -87 -45.5t-81 -10.5q-23 0 -36 10.5t-7 30.5z" />
<glyph unicode="&#xf5;" horiz-adv-x="1310" d="M143 510q18 104 71.5 196.5t131.5 163.5q78 70 175.5 112t201.5 42t186 -42t138 -112q53 -72 73.5 -164t1.5 -196q-18 -106 -72.5 -198.5t-131.5 -161.5q-78 -72 -174.5 -113t-200.5 -41t-186.5 41t-137.5 113q-53 70 -73.5 161.5t-2.5 198.5zM360 510 q-10 -63 2.5 -117.5t43.5 -93.5q31 -41 75.5 -63.5t98.5 -22.5q55 0 107 22.5t99 63.5q43 39 75 93.5t44 117.5q10 61 -2 115.5t-45 93.5q-61 86 -172 86t-207 -86q-43 -39 -74.5 -93.5t-44.5 -115.5zM481 1262q0 10 2 23t6 24q33 90 80 138t129 48q43 0 84 -13.5t79 -28.5 t71 -27.5t61 -12.5q35 0 55.5 15.5t38.5 50.5q10 16 28 28.5t40 12.5q31 0 53.5 -20.5t22.5 -47.5q0 -10 -2 -23.5t-6 -23.5q-33 -90 -80 -138t-129 -48q-43 0 -84 12t-79 27.5t-72 28.5t-60 13q-35 0 -55.5 -15t-38.5 -50q-10 -16 -26.5 -28.5t-41.5 -12.5 q-31 0 -53.5 20.5t-22.5 47.5z" />
<glyph unicode="&#xf6;" horiz-adv-x="1310" d="M143 510q18 104 71.5 196.5t131.5 163.5q78 70 175.5 112t201.5 42t186 -42t138 -112q53 -72 73.5 -164t1.5 -196q-18 -106 -72.5 -198.5t-131.5 -161.5q-78 -72 -174.5 -113t-200.5 -41t-186.5 41t-137.5 113q-53 70 -73.5 161.5t-2.5 198.5zM360 510 q-10 -63 2.5 -117.5t43.5 -93.5q31 -41 75.5 -63.5t98.5 -22.5q55 0 107 22.5t99 63.5q43 39 75 93.5t44 117.5q10 61 -2 115.5t-45 93.5q-61 86 -172 86t-207 -86q-43 -39 -74.5 -93.5t-44.5 -115.5zM520 1333l2 15q10 55 57.5 91t104.5 36q55 0 86 -36t21 -91l-3 -15 q-12 -55 -58 -90t-101 -35q-57 0 -89 35t-20 90zM928 1333l2 15q10 55 57.5 91t104.5 36q55 0 85.5 -36t20.5 -91l-2 -15q-12 -55 -58 -90t-102 -35q-57 0 -89 35t-19 90z" />
<glyph unicode="&#xf7;" horiz-adv-x="1269" d="M141 721q6 43 41 74.5t80 31.5h828q45 0 71.5 -31.5t20.5 -74.5q-8 -43 -43 -75t-80 -32h-828q-45 0 -71.5 32t-18.5 75zM455 289l2 10q10 57 56 97t105 40t95.5 -40t25.5 -97l-2 -10q-8 -57 -54 -96t-105 -39t-95.5 38.5t-27.5 96.5zM582 1143l2 10q8 55 54 95t105 40 t95 -40t28 -95l-2 -10q-10 -57 -56 -97t-106 -40q-59 0 -95 39.5t-25 97.5z" />
<glyph unicode="&#xf9;" horiz-adv-x="1255" d="M213 430l84 485q10 47 46 78t81 31q47 0 72.5 -30.5t17.5 -78.5l-86 -485q-8 -43 2 -81t33.5 -66.5t59.5 -45t79 -16.5t85 16.5t76 45t56.5 66.5t30.5 81l86 485q8 47 45 78t82 31q47 0 72.5 -30.5t15.5 -78.5l-84 -485q-16 -88 -63.5 -166t-115 -136t-151.5 -92 t-172 -34q-90 0 -161.5 34t-119.5 92t-67.5 136t-3.5 166zM520 1456q0 14 13.5 28.5t35 26t48 18.5t51.5 7q61 0 98 -59l117 -181q6 -10 12 -22t6 -23q0 -20 -17 -31.5t-46 -11.5q-43 0 -76 10.5t-68 45.5l-139 131q-35 31 -35 61z" />
<glyph unicode="&#xfa;" horiz-adv-x="1255" d="M213 430l84 485q10 47 46 78t81 31q47 0 72.5 -30.5t17.5 -78.5l-86 -485q-8 -43 2 -81t33.5 -66.5t59.5 -45t79 -16.5t85 16.5t76 45t56.5 66.5t30.5 81l86 485q8 47 45 78t82 31q47 0 72.5 -30.5t15.5 -78.5l-84 -485q-16 -88 -63.5 -166t-115 -136t-151.5 -92 t-172 -34q-90 0 -161.5 34t-119.5 92t-67.5 136t-3.5 166zM586 1251q0 10 5 22.5t11 22.5l117 181q37 59 98 59q25 0 50.5 -7t47 -18.5t36 -26t14.5 -28.5q0 -31 -35 -61l-137 -131q-37 -35 -70 -45.5t-76 -10.5q-27 0 -44 11.5t-17 31.5z" />
<glyph unicode="&#xfb;" horiz-adv-x="1255" d="M213 430l84 485q10 47 46 78t81 31q47 0 72.5 -30.5t17.5 -78.5l-86 -485q-8 -43 2 -81t33.5 -66.5t59.5 -45t79 -16.5t85 16.5t76 45t56.5 66.5t30.5 81l86 485q8 47 45 78t82 31q47 0 72.5 -30.5t15.5 -78.5l-84 -485q-16 -88 -63.5 -166t-115 -136t-151.5 -92 t-172 -34q-90 0 -161.5 34t-119.5 92t-67.5 136t-3.5 166zM522 1249q4 10 15.5 23.5t23.5 25.5l187 170q31 29 62.5 44.5t74.5 15.5h73q43 0 64.5 -15.5t36.5 -44.5l84 -170q6 -12 10 -25t0 -24q-6 -20 -26.5 -30.5t-45.5 -10.5q-43 0 -72.5 10.5t-62.5 45.5l-78 92 l-135 -92q-49 -35 -87 -45.5t-81 -10.5q-23 0 -36 10.5t-7 30.5z" />
<glyph unicode="&#xfc;" horiz-adv-x="1255" d="M213 430l84 485q10 47 46 78t81 31q47 0 72.5 -30.5t17.5 -78.5l-86 -485q-8 -43 2 -81t33.5 -66.5t59.5 -45t79 -16.5t85 16.5t76 45t56.5 66.5t30.5 81l86 485q8 47 45 78t82 31q47 0 72.5 -30.5t15.5 -78.5l-84 -485q-16 -88 -63.5 -166t-115 -136t-151.5 -92 t-172 -34q-90 0 -161.5 34t-119.5 92t-67.5 136t-3.5 166zM463 1333l2 15q10 55 57.5 91t104.5 36q55 0 85.5 -36t20.5 -91l-2 -15q-12 -55 -58 -90t-102 -35q-57 0 -88.5 35t-19.5 90zM870 1333l2 15q10 55 57.5 91t104.5 36q55 0 86 -36t21 -91l-2 -15q-12 -55 -58.5 -90 t-101.5 -35q-57 0 -89 35t-20 90z" />
<glyph unicode="&#xfd;" horiz-adv-x="1204" d="M128 -252q-7 43 19 84q29 41 75 55.5t83 -6.5q53 -27 115 -26q90 0 170 51t121 135q-98 -49 -207 -49q-90 0 -162 33.5t-121 93t-69.5 137.5t-4.5 168l86 491q10 47 47 78t82 31q47 0 74 -30.5t19 -78.5l-88 -491q-8 -43 2 -82t33.5 -68.5t59.5 -46t81 -16.5t87 16.5 t75.5 46t57 68.5t32.5 82l84 491q6 33 28 58q20 23 46 37t55 14q39 0 59 -20q43 -30 33 -89l-29 -157l-110 -631q-18 -102 -72.5 -192.5t-133.5 -157t-175.5 -105.5t-198.5 -39q-117 0 -209 52q-37 20 -44 63zM571 1251q0 10 5.5 22.5t11.5 22.5l117 181q37 59 98 59 q25 0 50.5 -7t47 -18.5t35.5 -26t14 -28.5q0 -31 -35 -61l-137 -131q-37 -35 -69.5 -45.5t-75.5 -10.5q-27 0 -44.5 11.5t-17.5 31.5z" />
<glyph unicode="&#xff;" horiz-adv-x="1204" d="M128 -252q-7 43 19 84q29 41 75 55.5t83 -6.5q53 -27 115 -26q90 0 170 51t121 135q-98 -49 -207 -49q-90 0 -162 33.5t-121 93t-69.5 137.5t-4.5 168l86 491q10 47 47 78t82 31q47 0 74 -30.5t19 -78.5l-88 -491q-8 -43 2 -82t33.5 -68.5t59.5 -46t81 -16.5t87 16.5 t75.5 46t57 68.5t32.5 82l84 491q6 33 28 58q20 23 46 37t55 14q39 0 59 -20q43 -30 33 -89l-29 -157l-110 -631q-18 -102 -72.5 -192.5t-133.5 -157t-175.5 -105.5t-198.5 -39q-117 0 -209 52q-37 20 -44 63zM465 1333l2 15q10 55 57.5 91t104.5 36q55 0 85.5 -36t20.5 -91 l-2 -15q-12 -55 -58 -90t-102 -35q-57 0 -88.5 35t-19.5 90zM872 1333l2 15q10 55 57.5 91t104.5 36q55 0 86 -36t21 -91l-2 -15q-12 -55 -58.5 -90t-101.5 -35q-57 0 -89 35t-20 90z" />
<glyph unicode="&#x152;" horiz-adv-x="2359" d="M90 739q27 154 103.5 285t191.5 233q111 102 251 161t288 59q141 0 260 -58.5t192 -161.5q0 -4 6 -10l13 76q10 47 48 80t85 33h670q45 0 73.5 -33t18.5 -80q-8 -47 -48 -81t-85 -34h-555l-66 -374h477q47 0 74 -34t18 -79q-8 -47 -47 -81t-86 -34h-477l-65 -377h555 q45 0 73.5 -33.5t18.5 -80.5q-8 -47 -48 -80t-85 -33h-664h-2v2l-4 -2q-47 0 -73.5 33t-18.5 80l20 114q-4 -2 -5 -4t-5 -4q-109 -100 -248 -159.5t-280 -59.5q-147 0 -266 59.5t-197 159.5t-109 232.5t-2 285.5zM324 739q-18 -104 2 -197t73 -159q53 -70 131 -108.5 t177 -38.5q92 0 181 38.5t167 108.5q76 66 130 159t72 197t-3 197.5t-72 161.5q-53 70 -130 107.5t-169 37.5q-98 0 -188.5 -38t-168.5 -107q-78 -68 -131 -161t-71 -198z" />
<glyph unicode="&#x153;" horiz-adv-x="2160" d="M143 518q18 106 73.5 200.5t133.5 166.5q80 72 179.5 113.5t203.5 41.5t188.5 -42t139.5 -113q8 -12 16 -24.5t15 -24.5q86 94 201.5 151t244.5 57q102 0 185 -35.5t138.5 -100t80 -153.5t12.5 -194q0 -8 -2 -12q0 -10 -4 -19q-12 -37 -47 -60.5t-78 -23.5h-666 q0 -35 11.5 -72.5t33.5 -64.5q27 -37 79 -63.5t105 -30.5q59 -4 128 14.5t122 65.5q29 29 55.5 34t47 -1t33 -16.5t14.5 -12.5q27 -29 23.5 -69t-31.5 -68q-47 -45 -94.5 -76t-98.5 -50.5t-109 -27.5t-128 -8q-125 0 -219.5 55.5t-147.5 147.5q-25 -27 -51 -51 q-78 -72 -177.5 -114t-203.5 -42t-188.5 42t-139.5 114q-53 72 -74.5 165t-3.5 201zM365 518q-10 -66 2 -120t43 -95q33 -41 77.5 -63.5t100.5 -22.5q55 0 108.5 22.5t100.5 63.5q45 41 77 95t44 120q10 63 -2.5 117.5t-45.5 95.5q-63 86 -176 86t-209 -86 q-45 -41 -76.5 -95t-43.5 -118zM1178 625h591q-2 31 -18 67.5t-49 68.5t-83 55.5t-118 29.5q-68 -4 -122 -26.5t-95 -55.5t-67.5 -70t-38.5 -69z" />
<glyph unicode="&#x178;" horiz-adv-x="1466" d="M133 1335q17 45 57 74q43 29 88.5 21.5t67.5 -46.5l268 -483l439 483q35 39 82 46.5t79 -21.5q35 -29 34 -74t-36 -84l-526 -579l-98 -561q-8 -47 -47 -80t-86 -33t-75 32.5t-20 80.5l101 561l-322 579q-23 39 -6 84zM446 1743l3 14q10 55 57 91t104 36q55 0 86 -36 t21 -91l-2 -14q-12 -55 -58.5 -90t-101.5 -35q-57 0 -89 35t-20 90zM854 1743l2 14q10 55 57.5 91t104.5 36q55 0 86 -36t20 -91l-2 -14q-12 -55 -58 -90t-101 -35q-57 0 -89 35t-20 90z" />
<glyph unicode="&#x2c6;" d="M297 1249q4 10 15.5 23.5t23.5 25.5l186 170q31 29 62.5 44.5t74.5 15.5h74q43 0 64.5 -15.5t36.5 -44.5l84 -170q6 -12 10 -25t0 -24q-6 -20 -26.5 -30.5t-45.5 -10.5q-43 0 -72.5 10.5t-62.5 45.5l-78 92l-135 -92q-49 -35 -87 -45.5t-81 -10.5q-23 0 -36 10.5t-7 30.5 z" />
<glyph unicode="&#x2dc;" d="M215 1262q0 10 2 23t6 24q33 90 80 138t129 48q43 0 84 -13.5t79 -28.5t70.5 -27.5t61.5 -12.5q35 0 55.5 15.5t38.5 50.5q10 16 27.5 28.5t40.5 12.5q31 0 53.5 -20.5t22.5 -47.5q0 -10 -2 -23.5t-7 -23.5q-33 -90 -80 -138t-128 -48q-43 0 -84 12t-79 27.5t-72 28.5 t-60 13q-35 0 -56 -15t-39 -50q-10 -16 -26.5 -28.5t-40.5 -12.5q-31 0 -53.5 20.5t-22.5 47.5z" />
<glyph unicode="&#x2000;" horiz-adv-x="973" />
<glyph unicode="&#x2001;" horiz-adv-x="1946" />
<glyph unicode="&#x2002;" horiz-adv-x="973" />
<glyph unicode="&#x2003;" horiz-adv-x="1946" />
<glyph unicode="&#x2004;" horiz-adv-x="648" />
<glyph unicode="&#x2005;" horiz-adv-x="486" />
<glyph unicode="&#x2006;" horiz-adv-x="324" />
<glyph unicode="&#x2007;" horiz-adv-x="324" />
<glyph unicode="&#x2008;" horiz-adv-x="243" />
<glyph unicode="&#x2009;" horiz-adv-x="389" />
<glyph unicode="&#x200a;" horiz-adv-x="108" />
<glyph unicode="&#x2010;" horiz-adv-x="835" d="M135 705q0 31 21.5 52t52.5 21h381q31 0 51.5 -21.5t20.5 -51.5q0 -31 -20.5 -52.5t-51.5 -21.5h-381q-31 0 -52.5 21.5t-21.5 52.5z" />
<glyph unicode="&#x2011;" horiz-adv-x="835" d="M135 705q0 31 21.5 52t52.5 21h381q31 0 51.5 -21.5t20.5 -51.5q0 -31 -20.5 -52.5t-51.5 -21.5h-381q-31 0 -52.5 21.5t-21.5 52.5z" />
<glyph unicode="&#x2012;" horiz-adv-x="835" d="M135 705q0 31 21.5 52t52.5 21h381q31 0 51.5 -21.5t20.5 -51.5q0 -31 -20.5 -52.5t-51.5 -21.5h-381q-31 0 -52.5 21.5t-21.5 52.5z" />
<glyph unicode="&#x2013;" horiz-adv-x="1081" d="M154 627q12 49 56 83.5t91 34.5h639q47 0 72.5 -34.5t13.5 -83.5q-14 -47 -57 -82t-90 -35h-639q-47 0 -74 35t-12 82z" />
<glyph unicode="&#x2014;" horiz-adv-x="1839" d="M156 627q14 49 58 83.5t91 34.5h1397q47 0 72.5 -34.5t11.5 -83.5q-16 -47 -60.5 -82t-91.5 -35h-1396q-47 0 -73 35t-9 82z" />
<glyph unicode="&#x2018;" horiz-adv-x="471" d="M158 1034v21q0 104 26.5 178t75.5 121q41 41 94.5 64.5t98.5 23.5q33 0 48 -16.5t15 -41.5q0 -23 -13.5 -36t-35.5 -19q-145 -45 -139 -182q45 -12 80.5 -48t35.5 -91v-17q0 -59 -37.5 -98t-101.5 -39q-68 0 -107.5 48t-39.5 132z" />
<glyph unicode="&#x2019;" horiz-adv-x="471" d="M121 913q0 23 13 36.5t34 19.5q145 45 139 184q-45 10 -81 46t-36 91v17q0 59 38 98t102 39q68 0 107.5 -48t39.5 -132v-21q0 -104 -26.5 -178t-73.5 -121q-41 -41 -95.5 -64.5t-97.5 -23.5q-33 0 -48 16t-15 41z" />
<glyph unicode="&#x201a;" horiz-adv-x="471" d="M111 -240q0 23 13 37.5t34 18.5q145 47 139 184q-45 12 -81 48t-36 91v17q0 59 38 98t101 39q70 0 109 -48t39 -132v-23q0 -104 -26.5 -177t-73.5 -122q-41 -41 -95.5 -64.5t-97.5 -23.5q-33 0 -48 17t-15 40z" />
<glyph unicode="&#x201c;" horiz-adv-x="839" d="M158 1034v21q0 104 26.5 178t75.5 121q41 41 94.5 64.5t98.5 23.5q33 0 48 -16.5t15 -41.5q0 -23 -13.5 -36t-35.5 -19q-145 -45 -139 -182q45 -12 80.5 -48t35.5 -91v-17q0 -59 -37.5 -98t-101.5 -39q-68 0 -107.5 48t-39.5 132zM633 1034v21q0 104 26.5 178t73.5 121 q41 41 95.5 64.5t97.5 23.5q33 0 49 -16.5t16 -41.5q0 -23 -13 -36t-36 -19q-145 -45 -139 -182q45 -12 81 -48t36 -91v-17q0 -59 -38 -98t-102 -39q-68 0 -107.5 48t-39.5 132z" />
<glyph unicode="&#x201d;" horiz-adv-x="839" d="M121 913q0 23 13 36.5t34 19.5q145 45 139 184q-45 10 -81 46t-36 91v17q0 59 38 98t102 39q68 0 107.5 -48t39.5 -132v-21q0 -104 -26.5 -178t-73.5 -121q-41 -41 -95.5 -64.5t-97.5 -23.5q-33 0 -48 16t-15 41zM594 913q0 23 13.5 36.5t35.5 19.5q145 45 139 184 q-45 10 -80.5 46t-35.5 91v17q0 59 37.5 98t101.5 39q68 0 107.5 -48t39.5 -132v-21q0 -104 -26.5 -178t-75.5 -121q-41 -41 -94.5 -64.5t-98.5 -23.5q-33 0 -48 16t-15 41z" />
<glyph unicode="&#x201e;" horiz-adv-x="839" d="M111 -240q0 23 13 37.5t34 18.5q145 47 139 184q-45 12 -81 48t-36 91v17q0 59 38 98t101 39q70 0 109 -48t39 -132v-23q0 -104 -26.5 -177t-73.5 -122q-41 -41 -95.5 -64.5t-97.5 -23.5q-33 0 -48 17t-15 40zM584 -240q0 23 13 37.5t36 18.5q145 47 139 184 q-45 12 -81 48t-36 91v17q0 59 38 98t102 39q68 0 107.5 -49t39.5 -131v-23q0 -104 -26.5 -177t-75.5 -122q-41 -41 -94.5 -64.5t-98.5 -23.5q-33 0 -48 17t-15 40z" />
<glyph unicode="&#x2026;" horiz-adv-x="1392" d="M168 102q0 41 30.5 71t71.5 30t71 -30t30 -71t-30 -71.5t-71 -30.5t-71.5 30.5t-30.5 71.5zM614 102q0 41 31 71t72 30t70.5 -30t29.5 -71t-29.5 -71.5t-70.5 -30.5t-72 30.5t-31 71.5zM1061 102q0 41 30.5 71t71.5 30t71 -30t30 -71t-30 -71.5t-71 -30.5t-71.5 30.5 t-30.5 71.5z" />
<glyph unicode="&#x202f;" horiz-adv-x="389" />
<glyph unicode="&#x205f;" horiz-adv-x="486" />
<glyph unicode="&#x2122;" horiz-adv-x="1413" d="M49 1386q4 20 20.5 35t39.5 15h372q20 0 31.5 -14.5t9.5 -35.5q-4 -20 -21.5 -33.5t-35.5 -13.5h-139l-82 -469q-4 -20 -20.5 -34.5t-39.5 -14.5q-18 0 -29.5 14.5t-7.5 34.5l82 469h-141q-18 0 -30.5 13.5t-8.5 33.5zM600 872l90 517q4 20 20.5 33.5t37.5 13.5h2 q24 4 34 -19l134 -243l217 243q18 20 45 19q20 0 31.5 -13.5t7.5 -33.5l-93 -517q-4 -23 -19 -36t-36 -13q-20 0 -32.5 13.5t-8.5 35.5l64 367l-156 -174q-18 -20 -43 -21h-2q-25 0 -37 21l-94 174l-64 -367q-4 -23 -20 -36t-39 -13q-20 0 -31.5 13.5t-7.5 35.5z" />
<glyph unicode="&#x25fc;" horiz-adv-x="1013" d="M0 0v1014h1014v-1014h-1014z" />
</font>
</defs>
</svg>
